Nocturnal Rites - Phoenix (2017) [Official Digital Download]

Posted By: HDV
Nocturnal Rites - Phoenix (2017) [Official Digital Download]

Nocturnal Rites - Phoenix (2017)
FLAC (tracks) 24-bit/44,1 kHz | Time - 47:04 minutes | 606 MB
Studio Master, Official Digital Download | Artwork: Front cover

Nocturnal Rites is a Swedish Power Metal band formed in 1990. "Phoenix" is the band's first studio album in 10 years. It's not really a straight power metal sound anymore, no – more general melodic metal in the vein of Trail Of Murder or Bruce Dickinson's solo works or something, though less heavy in places – just heavy, direct material based on strong vocal hooks and heavy, pounding rhythms.


Stylistically, Phoenix is a very modern sounding album, and I’d describe it more as melodic metal than anything else, as most of the tracks are slow to mid paced, and rely on huge vocal melodies above everything else. The chugs mostly come in quick bursts and most songs are fairly laid back throughout, with occasional heavy sections and bursts of speed, to remind fans they are listening to a metal album, but it’s clear the band has settled into a much more accessible, more radio friendly sound. There’s definitely still traces of power metal left in the music, and I generally find the heavier, speedier sections to be the highlights of the album, but the majority of the time the music is fairly slow paced and very melodic, just as the three pre-release singles would suggest.

Tracklist:

01 - A Heart as Black as Coal
02 - Before We Waste Away
03 - The Poisonous Seed
04 - Repent My Sins
05 - What's Killing Me
06 - A Song for You
07 - The Ghost Inside Me
08 - Nothing Can Break Me
09 - Flames
10 - Used to Be God
11 - Welcome to the End

Line Up:
Johnny Lindqvist – Vocals
Per Nilsson – Guitars
Fredrik Mannberg – Guitars
Nils Eriksson – Bass
Owe Lingvall – Drums

Analyzed: Nocturnal Rites / Phoenix
––––––––––––––––––––––––––––––––––––––––

DR Peak RMS Duration Track
––––––––––––––––––––––––––––––––––––––––
DR6 -0.77 dB -7.45 dB 4:21 01-A Heart as Black as Coal
DR6 -0.77 dB -7.57 dB 4:46 02-Before We Waste Away
DR6 -0.77 dB -7.76 dB 4:30 03-The Poisonous Seed
DR6 -0.77 dB -7.37 dB 3:52 04-Repent My Sins
DR6 -0.76 dB -7.97 dB 4:19 05-What's Killing Me
DR6 -0.76 dB -7.72 dB 3:50 06-A Song for You
DR6 -0.77 dB -8.21 dB 5:34 07-The Ghost Inside Me
DR6 -0.77 dB -7.45 dB 4:22 08-Nothing Can Break Me
DR6 -0.76 dB -8.34 dB 4:08 09-Flames
DR6 -0.78 dB -7.75 dB 3:18 10-Used to Be God
DR6 -0.78 dB -7.58 dB 4:05 11-Welcome to the End
––––––––––––––––––––––––––––––––––––––––

Number of tracks: 11
Official DR value: DR6

Samplerate: 44100 Hz
Channels: 2
Bits per sample: 24
Bitrate: 1714 kbps
Codec: FLAC
================================================================================


Thanks to the Original customer!