Ozzy Osbourne - Memoirs Of A Madman (2014) [Official Digital Download 24bit/96kHz]

Posted By: HDV
Ozzy Osbourne - Memoirs Of A Madman (2014) [Official Digital Download 24bit/96kHz]

Ozzy Osbourne - Memoirs Of A Madman (2014)
FLAC (tracks) 24 bit/96 kHz | Time - 78:02 minutes | 1,78 GB
Studio Master, Official Digital Download | Artwork: Front cover

Memoirs Of A Madman serves as a career spanning audio release, featuring 17 of OZZY's greatest hit singles compiled in one place for the first time in his career…

Through summoning demons from the depths of hell as the frontman of metal pioneers Black Sabbath in their best days, partying hard through the '80s and landing on a reality show focusing on his dysfunctional family in the 2000s, Ozzy Osbourne has kept on the wicked side for the majority of his decades-spanning career in evil. Starting his solo bid almost immediately after his departure from Sabbath, Ozzy turned in classic metal albums with early-'80s Randy Rhoads collaborations like Blizzard of Ozz and Diary of a Madman, and stayed consistently strong with many platinum-selling albums throughout the '90s, 2000s, and beyond. The Ozzman has never shied away from live records, repackagings, or greatest-hits collections, either, and Memoirs of a Madman collects standout cuts from each of his 11 studio albums, offering a full range of singles that shows the full spectrum of his development as the ever-menacing prince of heavy metal darkness. The 17 tracks here run in chronological order, from 1980’s easily recognizable “Crazy Train” through to particularly dated-sounding early-'90s power ballads like “Mama I’m Coming Home” up to “Let Me Hear You Scream” from his 2010 studio offering Scream. His Sabbath days get a nod or two as well, with a cover of their brooding piano ballad “Changes” that Ozzy and daughter Kelly serve up as an awkward daddy-daughter duet, and an unreleased live recording of “Paranoid” from 2010. While the material is inarguably some of the consolidated best Ozzy has recorded, it’s hard to know where to put Memoirs of a Madman. The post-'80s tunes get considerably weaker, and even the strongest tracks from Ultimate Sin-era Ozzy don’t touch anything from even his most drug-addled and confused days in Black Sabbath. Die-hard fans probably don’t need a collection so basic (the sole unreleased track, the aforementioned live version of “Paranoid,” is hardly essential listening) and anyone just coming to Ozzy's music could find a better introduction in any of the first three or four solo albums. While less thorough in their coverage of Ozzy’s long, strange road, they offer far more song-for-song and capture a time when the danger and devilishness of Ozzy’s increasingly hollow persona was backed up by more inspired songwriting and support from some of his strongest collaborators.

Tracklist:

01 - Crazy Train
02 - Mr. Crowley
03 - Flying High Again
04 - Over the Mountain
05 - Bark at the Moon
06 - The Ultimate Sin
07 - Miracle Man
08 - No More Tears [Edit]
09 - Mama, I'm Coming Home
10 - Road to Nowhere
11 - Perry Mason
12 - I Just Want You
13 - Gets Me Through
14 - Changes [with Kelly Osbourne]
15 - I Don't Wanna Stop
16 - Let Me Hear You Scream
17 - Paranoid [Live]

Please Note: Tracks 9, 10, 13, 14, 15,16 are 44k recordings mastered to 96/24.

Analyzed: Ozzy Osbourne & Kelly Osbourne / Memoirs of a Madman (1)
Ozzy Osbourne / Memoirs of a Madman (2-17)
––––––––––––––––––––––––––––––––––––––––

DR Peak RMS Duration Track
––––––––––––––––––––––––––––––––––––––––
DR7 -0.80 dB -12.22 dB 4:09 14-Changes
DR6 -0.70 dB -8.43 dB 4:51 01-Crazy Train
DR6 -0.70 dB -9.32 dB 4:57 02-Mr. Crowley
DR7 -0.70 dB -9.99 dB 4:44 03-Flying High Again
DR7 -0.70 dB -9.40 dB 4:32 04-Over the Mountain
DR6 -0.70 dB -8.29 dB 4:17 05-Bark at the Moon
DR7 -0.70 dB -9.07 dB 3:45 06-The Ultimate Sin
DR6 -0.70 dB -7.69 dB 3:45 07-Miracle Man
DR7 -0.70 dB -9.10 dB 5:56 08-No More Tears (Edit)
DR6 -0.70 dB -8.70 dB 4:12 09-Mama, I'm Coming Home
DR7 -0.70 dB -8.86 dB 5:10 10-Road to Nowhere
DR6 -1.45 dB -8.63 dB 5:54 11-Perry Mason
DR7 -1.45 dB -9.90 dB 4:56 12-I Just Want You
DR7 -0.70 dB -9.31 dB 5:06 13-Gets Me Through
DR5 -1.05 dB -7.32 dB 4:02 15-I Don't Wanna Stop
DR5 -1.51 dB -7.30 dB 3:28 16-Let Me Hear You Scream
DR5 -1.70 dB -7.18 dB 4:19 17-Paranoid (Live)
––––––––––––––––––––––––––––––––––––––––

Number of tracks: 17
Official DR value: DR6

Samplerate: 96000 Hz
Channels: 2
Bits per sample: 24
Bitrate: 3026 kbps
Codec: FLAC
================================================================================


Thanks to the Original customer!


Part 1 | Part 2 | Part 3

password: AvaxHome




.