Paul McCartney And Wings - Band On The Run (1973) [Remaster 2010] {Official Web UNLIMITED Edition 24bit/96kHz} RE-UP

Posted By: HDV
Paul McCartney And Wings - Band On The Run (1973) [Remaster 2010] {Official Web UNLIMITED Edition 24bit/96kHz} RE-UP

Paul McCartney & Wings - Band On The Run (1973) [Remaster 2010] {UNLIMITED Edition}
FLAC (tracks) 24 bit/96 kHz | Time - 75:31 minutes | 1,62 GB
Studio Master, Official Digital Download | Artwork: Digital booklet

The first release from the Paul McCartney Archive Collection, an ambitious reissue program that encompasses 41 years of cherished, classic material from the most successful songwriter and recording artist in music history.

Neither the dippy, rustic Wild Life nor the slick AOR flourishes of Red Rose Speedway earned Paul McCartney much respect, so he made the self-consciously ambitious Band on the Run to rebuke his critics. On the surface, Band on the Run appears to be constructed as a song cycle in the vein of Abbey Road, but subsequent listens reveal that the only similarities the two albums share are simply superficial. McCartney's talent for songcraft and nuanced arrangements is in ample display throughout the record, which makes many of the songs – including the nonsensical title track – sound more substantial than they actually are. While a handful of the songs are excellent – the surging, inspired surrealism of "Jet" is by far one of his best solo recordings, "Bluebird" is sunny acoustic pop, and "Helen Wheels" captures McCartney rocking with abandon – most of the songs are more style than substance. Yet McCartney's melodies are more consistent than any of his previous solo records, and there are no throwaways; the songs just happen to be not very good. Still, the record is enjoyable, whether it's the minor-key "Mrs. Vandebilt" or "Let Me Roll It," a silly response to John Lennon's "How Do You Sleep?," which does make Band on the Run one of McCartney's finest solo efforts. However, there's little of real substance on the record. No matter how elaborate the production is, or how cleverly his mini-suites are constructed, Band on the Run is nothing more than a triumph of showmanship.

Tracklist:

CD1 #01 - Band On The Run
CD1 #02 - Jet
CD1 #03 - Bluebird
CD1 #04 - Mrs. Vanderbilt
CD1 #05 - Let Me Roll It
CD1 #06 - Mamunia
CD1 #07 - No Words
CD1 #08 - Picasso's Last Words (Drink To Me)
CD1 #09 - Nineteen Hundred And Eighty Five
CD2 #01 - Helen Wheels
CD2 #02 - Country Dreamer
CD2 #03 - Bluebird [from One Hand Clapping]
CD2 #04 - Jet [from One Hand Clapping]
CD2 #05 - Let Me Roll It [from One Hand Clapping]
CD2 #06 - Band On The Run [from One Hand Clapping]
CD2 #07 - Nineteen Hundred And Eighty Five [from One Hand Clapping]
CD2 #08 - Country Dreamer [from One Hand Clapping]
CD2 #09 - Zoo Gang

Analyzed: Paul McCartney & Wings / Band On The Run
––––––––––––––––––––––––––––––––––––––––

DR Peak RMS Duration Track
––––––––––––––––––––––––––––––––––––––––
DR13 -0.17 dB -15.95 dB 5:14 01-Band On The Run
DR13 -0.02 dB -14.73 dB 4:09 02-Jet
DR13 -1.67 dB -17.34 dB 3:25 03-Bluebird
DR11 -1.09 dB -14.63 dB 4:42 04-Mrs. Vanderbilt
DR11 -1.72 dB -14.94 dB 4:50 05-Let Me Roll It
DR13 -1.68 dB -17.13 dB 4:51 06-Mamunia
DR10 -3.38 dB -16.17 dB 2:36 07-No Words
DR13 -2.17 dB -17.95 dB 5:49 08-Picasso's Last Words (Drink To Me)
DR11 -0.02 dB -15.25 dB 5:32 09-Nineteen Hundred And Eighty Five
DR11 -0.91 dB -13.88 dB 3:48 01-Helen Wheels
DR12 -1.49 dB -16.16 dB 3:10 02-Country Dreamer
DR11 -1.25 dB -15.14 dB 3:29 03-Bluebird [from One Hand Clapping]
DR10 -0.91 dB -13.16 dB 3:58 04-Jet [from One Hand Clapping]
DR10 -1.07 dB -13.64 dB 4:25 05-Let Me Roll It [from One Hand Clapping]
DR12 -0.41 dB -14.62 dB 5:15 06-Band On The Run [from One Hand Clapping]
DR11 -0.71 dB -16.29 dB 6:00 07-Nineteen Hundred And Eighty Five [from One Hand Clapping]
DR12 -5.61 dB -19.78 dB 2:17 08-Country Dreamer [from One Hand Clapping]
DR11 -2.71 dB -15.58 dB 2:01 09-Zoo Gang
––––––––––––––––––––––––––––––––––––––––

Number of tracks: 18
Official DR value: DR12

Samplerate: 96000 Hz
Channels: 2
Bits per sample: 24
Bitrate: 2953 kbps
Codec: FLAC
================================================================================


Thanks to the Original customer!

RELATED LINKS:
More of McCartney's Remasters
The Beatles - Stereo Box Set (2009)
John Lennon - Signature Box (2010/2014)