Pharrell Williams - G I R L (2014)

Posted By: HDV
Pharrell Williams - G I R L (2014)

Pharrell Williams - G I R L (2014)
FLAC (tracks) 24 bit/44,1 kHz | Time - 47:00 minutes | 577 MB
Official Digital Download - Source: ##buz | Front cover

Redefining cool for a new generation, Pharrell Williams is a creative force, using music, fashion, and design to express his distinctive style. With over 100 million copies of his productions sold, his music sounds like something no one else has thought of just yet. He's also created a new way of looking at established stars like SnoopDogg, Madonna, and even the Rolling Stones. G I R L is Pharrell's highly anticipated new album, and features the hit single, "Happy", an international phenomenon and radio smash.

At some point between In My Mind and this album, tracking Pharrell's accomplishments became more difficult than ever. His 2013 alone must be considered historic. That February, he accepted a Grammy for his role in Frank Ocean's Channel Orange. March brought the release of Robin Thicke's "Blurred Lines," a Pharrell production that eventually topped the Hot 100. In April, there was Daft Punk's Pharrell-fronted "Get Lucky," a number two hit. From June through December, the Top Five of the Billboard 200 featured ten albums that involved him, including the number ones Random Access Memories, Blurred Lines, Magna Carta…Holy Grail, and Beyoncé. He subsequently earned seven additional Grammy nominations and took home three awards – presumably stowed in one of the compartments of his hat – the following January, including the one for Producer of the Year, Non-Classical. Just prior to the March 2014 release of G I R L, "Happy," one of several songs he granted to the soundtrack of Despicable Me 2, topped the Hot 100. That carefree soul throwback appears here, almost smack in the middle. It doesn't sound out of place in a set of upbeat, candy-coated pop-R&B that is relatively modern-sounding, laced with some elements of R&B from the mid- to late '60s and that sweet late-'70s to early-'80s spot. One highlight that owes more to the past is "Gust of Wind," a midtempo disco-funk Daft Punk collaboration filled with soaring strings and one of Pharrell's most effectively wistful/yearning turns. On the sunny "Brand New," he adds horns and shares vocals with Justin Timberlake, and they deal out some rare male self-objectification: "Like the tags still on me, jumpin' 'round in your bag." Much of the material is gentlemanly – appearances from Alicia Keys, Miley Cyrus, JoJo, and other women add to the approach – but this wouldn't be a Pharrell album without some goofball moves. "Hunter," like a funkier and tinnier take on what he did for Usher's "Twisted," is steeped in his charm-way-over-ability falsetto and cartoonish boasts with topical references. "Gush," what sounds like an outtake from the first N.E.R.D. album plus strings, begins with "Make the pussy just gush" and references "Light Your Ass on Fire" while proclaiming "My mama didn't raise me that way" somewhere between. Compared to his albums with N.E.R.D. and In My Mind, this is easily Pharrell's second most enjoyable album, just behind the original version of In Search Of… from 2001. It's fun, frivolous, and low on excess.

Tracklist:

01 - Marilyn Monroe
02 - Brand New
03 - Hunter
04 - Gush
05 - Happy
06 - Come Get It Bae
07 - Gust Of Wind
08 - Lost Queen
09 - Know Who You Are
10 - It Girl

Analyzed: Pharrell Williams / G I R L
––––––––––––––––––––––––––––––––––––––––

DR Peak RMS Duration Track
––––––––––––––––––––––––––––––––––––––––
DR7 -1.26 dB -9.60 dB 5:51 01-Marilyn Monroe
DR6 -1.29 dB -8.95 dB 4:32 02-Brand New
DR7 -1.26 dB -8.87 dB 4:01 03-Hunter
DR6 -1.20 dB -9.66 dB 3:55 04-Gush
DR6 -1.26 dB -7.98 dB 3:53 05-Happy (from Despicable Me 2)
DR6 -1.29 dB -9.15 dB 3:22 06-Come Get It Bae
DR6 -1.25 dB -9.23 dB 4:46 07-Gust Of Wind
DR5 -1.20 dB -9.79 dB 7:57 08-Lost Queen
DR7 -1.29 dB -9.33 dB 3:57 09-Know Who You Are
DR6 -1.30 dB -8.68 dB 4:47 10-It Girl
––––––––––––––––––––––––––––––––––––––––

Number of tracks: 10
Official DR value: DR6

Samplerate: 44100 Hz
Channels: 2
Bits per sample: 24
Bitrate: 1628 kbps
Codec: FLAC
================================================================================


Thanks to the Original customer!