Phil Woods - Here's To My Lady (1989) [Reissue 2004] MCH SACD ISO + Hi-Res FLAC

Posted By: HDAtall
Phil Woods - Here's To My Lady (1989) [Reissue 2004] MCH SACD ISO + Hi-Res FLAC

Phil Woods - Here's To My Lady (1989) [Reissue 2004]
SACD Rip | SACD ISO | DST64 2.0 & 5.0 > 1-bit/2.8224 MHz | 65:42 minutes | Front/Rear covers | 3,12 GB
or FLAC 2.0 Stereo (converted with foobar2000 to tracks) 24bit/88,2 kHz | Front/Rear covers | 1,41 GB
Features Stereo and Multichannel surround sound | Label: Chesky Records # SACD268

Phil Woods, the searing Alto saxophonist and clarinetist, calls his occasional expanded combo "the Little Big Band". Here's To My Lady, the octet's first recording, offers up a hot band with inventive solos and big-sounding, imaginative ensembles. This is an album with no let downs.

Altoist Phil Woods took a rare vacation from playing with his regular group to collaborate with pianist Tommy Flanagan, bassist George Mraz and drummer Kenny Washington on this fine straight-ahead quartet date. The 13 selections are fairly concise (clocking in between 3-7 minutes apiece) and most of the material (other than "Canadian Sunset," "Yours Is My Heart Alone," "Blue and Sentimental" and Bill Evans' classic "Waltz for Debby") consists of either obscurities or recent originals. A special bonus is that Woods plays his appealing clarinet on three numbers. Highlights include "Charles Christopher" (a tribute to Charlie Parker), "Butter" and Hal Galper's "Just Us."

Tracklist:

01. Superette
02. Johnny Hodges
03. Another Love Song
04. Canadian Sunset
05. Charles Christopher
06. Butter
07. Visions of Gaudi
08. Yours Is My Heart Alone
09. Blue and Sentimental
10. Origins
11. Here's To My Lady
12. Waltz For Debby
13. Just Us

Produced by David Chesky. Engineered by Bob Katz.
Recorded on December 20-21, 1988 at RCA Studio A, New York City.

Personnel
Phil Woods - alto saxophone and clarinet
Tommy Flanagan - piano
George Mraz - bass
Kenny Washington - drums

foobar2000 1.3.17 / Dynamic Range Meter 1.1.1

––––––––––––––––––––––––––––––––––––––––
Analyzed: Phil Woods / Here's To My Lady
––––––––––––––––––––––––––––––––––––––––

DR Peak RMS Duration Track
––––––––––––––––––––––––––––––––––––––––
DR12 -6.14 dB -25.72 dB 3:59 01-Superette
DR11 -6.09 dB -27.28 dB 5:36 02-Johnny Hodges
DR10 -9.04 dB -27.93 dB 6:08 03-Another Love Song
DR13 -6.09 dB -29.37 dB 4:47 04-Canadian Sunset
DR11 -6.13 dB -26.24 dB 4:54 05-Charles Christopher
DR11 -6.15 dB -27.23 dB 5:44 06-Butter
DR11 -6.12 dB -27.45 dB 5:31 07-Visions of Gaudi
DR11 -6.13 dB -28.21 dB 5:17 08-Yours Is My Heart Alone
DR13 -6.10 dB -30.39 dB 5:07 09-Blue and Sentimental
DR12 -6.03 dB -26.19 dB 3:37 10-Origins
DR10 -6.58 dB -25.72 dB 4:54 11-Here's To My Lady
DR10 -11.35 dB -30.46 dB 5:17 12-Waltz For Debby
DR11 -6.31 dB -26.73 dB 4:51 13-Just Us
––––––––––––––––––––––––––––––––––––––––

Number of tracks: 13
Official DR value: DR11

Samplerate: 2822400 Hz / PCM Samplerate: 88200 Hz
Channels: 5
Bits per sample: 1
Bitrate: 14112 kbps
Codec: DST64
================================================================================

––––––––––––––––––––––––––––––––––––––––
Analyzed: Phil Woods / Here's To My Lady
––––––––––––––––––––––––––––––––––––––––

DR Peak RMS Duration Track
––––––––––––––––––––––––––––––––––––––––
DR14 -6.14 dB -22.60 dB 3:59 01-Superette
DR14 -6.09 dB -24.23 dB 5:36 02-Johnny Hodges
DR12 -9.04 dB -25.17 dB 6:08 03-Another Love Song
DR16 -6.09 dB -26.24 dB 4:47 04-Canadian Sunset
DR14 -6.13 dB -23.25 dB 4:54 05-Charles Christopher
DR14 -6.15 dB -24.46 dB 5:44 06-Butter
DR15 -6.12 dB -24.48 dB 5:31 07-Visions of Gaudi
DR14 -6.13 dB -25.09 dB 5:17 08-Yours Is My Heart Alone
DR16 -6.10 dB -27.28 dB 5:07 09-Blue and Sentimental
DR14 -6.03 dB -23.18 dB 3:37 10-Origins
DR12 -6.58 dB -22.76 dB 4:54 11-Here's To My Lady
DR12 -11.35 dB -27.04 dB 5:17 12-Waltz For Debby
DR14 -6.31 dB -23.71 dB 4:51 13-Just Us
––––––––––––––––––––––––––––––––––––––––

Number of tracks: 13
Official DR value: DR14

Samplerate: 2822400 Hz / PCM Samplerate: 88200 Hz
Channels: 2
Bits per sample: 1
Bitrate: 5645 kbps
Codec: DST64


Thanks to jazzyman!
Uncompressed SACD ISO size > 2,97 GB

Phil Woods Quartet - Woodlore
Phil Woods and Donald Byrd - The Young Bloods
>