Primus - The Desaturating Seven (2017) [Official Digital Download]

Posted By: HDV
Primus - The Desaturating Seven (2017) [Official Digital Download]

Primus - The Desaturating Seven (2017)
FLAC (tracks) 24-bit/44,1 kHz | Time - 34:41 minutes | 368 MB
Studio Master, Official Digital Download | Artwork: Front cover

This is the first studio album of original material since 1995's Tales From The Punchbowl with the classic Primus line-up of Les Claypool (vocals, bass), Larry LaLonde (guitar) and Tim Alexander (drums). The Desaturating Seven is inspired by a 1970's children's book Claypool often read to his kids when they were growing up. The book tells a story of seven goblins one representing each color of the rainbow who simultaneously pull all of the color out of the world.

Never ones to shy away from a quirky concept, prog-funk trio Primus found inspiration in Italian author Ul de Rico's children's book The Rainbow Goblins, and twisted it into something only Primus could create. The second consecutive album based on a children's story, The Desaturating Seven tells the sonic tale of a septet of greedy, color-eating goblins who terrorize their fictional world by sucking the color out of rainbows. The album's seven tracks chart their nefarious expedition to the Valley of Rainbows, a paradise untouched by the hungry creatures. From the creepy introduction "The Valley" to the brief closer "The Ends?," the album is not suited for a casual listen, instead demanding listeners get lost in the weirdness and enjoy the ride. At points, it's a challenge. The nearly eight-minute "The Trek" is indeed a trek in itself, while the mostly instrumental "The Dream" tests the limits of patience. While sometimes silly, if taken as a whole it's a trippy and altogether loony experience. Highlights include "The Seven," which introduces the titular goblins with an irresistible groove; "The Scheme," the catchy closer for side A that most closely resembles a traditionally pop-structured song; and "The Storm," the album's heaviest moment, marking the Seven's ultimate demise. Les Claypool's trademark vocals and lurching bass mark this as an unmistakable Primus creation, so fans should appreciate this addition to their collections. Otherwise, The Desaturating Seven is unlikely to attract new fans. Typically eccentric, it's an interesting exercise, although nonessential outside the sphere of Primus/Claypool devotees.

Tracklist:

01 - The Valley
02 - The Seven
03 - The Trek
04 - The Scheme
05 - The Dream
06 - The Storm
07 - The Ends?

Produced by Les Claypool. Recorded at Rancho Relaxo, CA.

Musicians:
Les Claypool – vocals, bass guitar, upright bass
Larry LaLonde – electric guitar, acoustic guitar
Tim "Herb" Alexander – drums, percussion
Justin Chancellor – the goblin master (narration on "1")

Analyzed: Primus / The Desaturating Seven
––––––––––––––––––––––––––––––––––––––––

DR Peak RMS Duration Track
––––––––––––––––––––––––––––––––––––––––
DR8 -0.40 dB -11.46 dB 4:43 01-The Valley
DR6 -0.40 dB -7.91 dB 3:08 02-The Seven
DR6 -0.40 dB -10.20 dB 7:50 03-The Trek
DR5 -0.48 dB -7.28 dB 2:51 04-The Scheme
DR7 -0.40 dB -11.00 dB 6:37 05-The Dream
DR6 -0.43 dB -9.38 dB 7:48 06-The Storm
DR6 -0.54 dB -9.47 dB 1:44 07-The Ends?
––––––––––––––––––––––––––––––––––––––––

Number of tracks: 7
Official DR value: DR6

Samplerate: 44100 Hz
Channels: 2
Bits per sample: 24
Bitrate: 1325 kbps
Codec: FLAC
================================================================================


Thanks to the Original customer!