Primus - Sailing The Seas Of Cheese {Remastered Deluxe Edition} (1991/2013) [Official Digital Download 24bit/96kHz] RE-UP

Posted By: HDV
Primus - Sailing The Seas Of Cheese {Remastered Deluxe Edition} (1991/2013) [Official Digital Download 24bit/96kHz] RE-UP

Primus - Sailing The Seas Of Cheese (1991/2013) [Deluxe Edition]
FLAC (tracks) 24 bit/96 kHz | Time - 70:34 minutes | 1,34 GB
Studio Master, Official Digital Download | Artwork: Front cover

Released in May 1991, Sailing The Seas Of Cheese was Primus’ second studio album and major label debut, featuring the singles “Jerry Was A Racecar Driver,” “Tommy The Cat” and “Those Damn Blue-Collar Tweekers.” It reached #2 on Billboard’s Heatseekers charts. Comprised of bassist/vocalist Claypool, guitarist LaLonde and drummer Tim “Herb” Alexander, Primus toured extensively in 1991 and 1992, including dates with Public Enemy, Anthrax, Fishbone, Rush and U2. Sailing The Seas of Cheese was certified Gold within two years, eventually climbing to Platinum certification.

The first Primus album to achieve much widespread airplay (thanks to its release on a major), and the one that broke them on MTV, Sailing the Seas of Cheese completely redefined the possibilities of the electric bass in rock music for those who'd never heard the group before. Slapping like a funk player, but strumming power chords and finger-tapping like a metal guitar hero, Les Claypool coaxed sounds from his instrument that had rarely if ever been made the focus of a rock band. Claypool's riffs were so full and dominant that they hardly needed to be doubled by guitarist Larry LaLonde (and wouldn't have had the same effect anyway), which freed him up on most songs to launch into dissonant, atonal solos that essentially functioned as texture, complementing Claypool's oddly whimsical sense of melody. The combination results in a weird atmosphere that could be transformed into something dark or eerie, but Claypool's thin, nasal voice and demented blue-collar persona place the record firmly in the realm of the cheerfully bizarre. The compositions are mostly riff-driven, fleshing out their heavy metal roots with prog rock tricks from Rush and Frank Zappa, as well as the novelty side of Zappa's sense of humor. The willful goofiness may alienate some listeners, but it can also obscure some genuinely dark humor, and it never detracts from the band's frequently stunning musicianship. Somewhat analogous to jazz trumpeter Dizzy Gillespie, Claypool hasn't inspired many direct imitators because of his tremendous feats of dexterity. But his stature as a virtuoso able to take his instrument into previously undreamed-of realms is without question. Though Sailing the Seas of Cheese tones down Primus' penchant for jamming, it's the tightest, most song-oriented representation of their jaw-dropping, one-of-a-kind style.

Tracklist:

01 - Seas Of Cheese
02 - Here Come The Bastards
03 - Sgt. Baker
04 - American Life
05 - Jerry Was A Racecar Driver
06 - Eleven
07 - Is It Luck?
08 - Grandad's Little Ditty
09 - Tommy The Cat
10 - Sathington Waltz
11 - Those Damned Blue-Collar Tweekers
12 - Fish On (Fisherman Chronicles, Chapter II)
13 - Los Bastardos
14 - Those Damned Blue-Collar Tweekers (Live) [Bonus Track]
15 - American Life (Live) [Bonus Track]
16 - Here Come The Bastards (Bassnectar Mix) [Bonus Track]

Please note: Tracks 14/15 are 48kHz/24bit and track 16 is 44.1kHz/24bit.

Analyzed: Primus / Sailing The Seas Of Cheese
––––––––––––––––––––––––––––––––––––––––

DR Peak RMS Duration Track
––––––––––––––––––––––––––––––––––––––––
DR6 -0.01 dB -8.08 dB 7:55 14-Those Damned Blue-Collar Tweekers - Live
DR6 0.00 dB -8.10 dB 11:38 15-American Life - Live
––––––––––––––––––––––––––––––––––––––––

Number of tracks: 2
Official DR value: DR6

Samplerate: 48000 Hz
Channels: 2
Bits per sample: 24
Bitrate: 1660 kbps
Codec: FLAC
================================================================================

––––––––––––––––––––––––––––––––––––––––
Analyzed: Primus / Sailing The Seas Of Cheese
––––––––––––––––––––––––––––––––––––––––

DR Peak RMS Duration Track
––––––––––––––––––––––––––––––––––––––––
DR9 -0.53 dB -12.68 dB 0:42 01-Seas Of Cheese - 2013 Mix
DR7 -0.20 dB -9.30 dB 2:55 02-Here Come The Bastards - 2013 Mix
DR7 -0.20 dB -9.25 dB 4:17 03-Sgt. Baker - 2013 Mix
DR7 -0.20 dB -9.13 dB 4:33 04-American Life - 2013 Mix
DR5 -0.20 dB -7.85 dB 3:11 05-Jerry Was A Racecar Driver - 2013 Mix
DR6 -0.20 dB -8.28 dB 4:23 06-Eleven - 2013 Mix
DR7 -0.20 dB -9.53 dB 3:28 07-Is It Luck? - 2013 Mix
DR11 -5.75 dB -20.29 dB 0:36 08-Grandad's Little Ditty - 2013 Mix
DR6 -0.20 dB -8.54 dB 4:14 09-Tommy The Cat - 2013 Mix
DR9 -0.20 dB -12.41 dB 1:43 10-Sathington Waltz - 2013 Mix
DR6 -0.20 dB -8.90 dB 5:19 11-Those Damned Blue-Collar Tweekers - 2013 Mix
DR7 -0.20 dB -9.12 dB 7:44 12-Fish On (Fisherman Chronicles, Chapter II) - 2013 Mix
DR6 -0.20 dB -8.63 dB 2:39 13-Los Bastardos - 2013 Mix
––––––––––––––––––––––––––––––––––––––––

Number of tracks: 13
Official DR value: DR7

Samplerate: 96000 Hz
Channels: 2
Bits per sample: 24
Bitrate: 3164 kbps
Codec: FLAC
================================================================================


Thanks to the Original customer!