Prince - Classic Albums Collection 1978-1986 (2013) [Official Digital Download 24 bit/192 kHz]

Posted By: HDV
Prince - Classic Albums Collection 1978-1986 (2013) [Official Digital Download 24 bit/192 kHz]

Prince - Classic Albums Collection 1978-1986 (2013)
FLAC (tracks) 24 bit/192 kHz | Time - 339:01 minutes | ~ 12 GB
FLAC (tracks) 24 bit/96 kHz | Time - 339:01 minutes | 6,86 GB
8 Albums | Studio Master, Official Digital Download | Artwork: Front cover(s)

Few artists have created a body of work as rich and varied as Prince. During the '80s, he emerged as one of the most singular talents of the rock & roll era, capable of seamlessly tying together pop, funk, folk, and rock. Not only did he release a series of groundbreaking albums; he toured frequently, produced albums and wrote songs for many other artists, and recorded hundreds of songs that still lie unreleased in his vaults. With each album he released, Prince has shown remarkable stylistic growth and musical diversity, constantly experimenting with different sounds, textures, and genres. Occasionally, his music can be maddeningly inconsistent because of this eclecticism, but his experiments frequently succeed; no other contemporary artist can blend so many diverse styles into a cohesive whole. Prince is a Rock and Roll Hall of Fame inductee who has sold over eighty million copies worldwide. He has won seven GRAMMY Awards, a Golden Globe and an Academy Award. He is also one of Rolling Stone’s “100 Greatest Artists of All Time”.


Prince - Classic Albums Collection 1978-1986 (2013) [Official Digital Download 24 bit/192 kHz]

Prince - For You (1978/2013)
FLAC (tracks) 24 bit/192 kHz | Time - 33:21 minutes | 1,19 GB
FLAC (tracks) 24 bit/96 kHz | Time - 33:21 minutes | 679 MB
Studio Master, Official Digital Download | Artwork: Front cover

For You is Prince’s highly regarded debut album. He showcases his unworldly arrangements and performance skills, blending R&B with funk. Reaching the top twenty five on Billboard’s Top R&B albums, For You includes the standouts, “Just As Long As We're Together” and “Soft And Wet.” This iconic debut is an essential addition to your music collection.

On his debut album, For You, Prince shows exceptional skill for arranging and performing mainstream urban R&B and funk, but his songwriting remains conventional. Only on the mildly racy "Soft and Wet" does he demonstrate a personal touch, but the song is still more of a promise than a fulfillment. While For You isn't a bad record, it is merely a pleasant one, and it offers very little indication of his staggering talents.

Tracklist:

01 - For You
02 - In Love
03 - Soft And Wet
04 - Crazy You
05 - Just As Long As We're Together
06 - Baby
07 - My Love Is Forever
08 - So Blue
09 - I'm Yours

Analyzed: Prince / For You
––––––––––––––––––––––––––––––––––––––––

DR Peak RMS Duration Track
––––––––––––––––––––––––––––––––––––––––
DR10 -8.25 dB -22.80 dB 1:08 01-For You
DR14 -2.63 dB -18.77 dB 3:37 02-In Love
DR15 -1.29 dB -18.26 dB 3:03 03-Soft And Wet
DR15 -4.15 dB -24.22 dB 2:17 04-Crazy You
DR15 -0.04 dB -17.10 dB 6:25 05-Just As Long As We're Together
DR13 -1.77 dB -19.37 dB 3:10 06-Baby
DR14 -0.57 dB -17.25 dB 4:11 07-My Love Is Forever
DR14 -3.56 dB -21.70 dB 4:29 08-So Blue
DR13 -0.91 dB -16.39 dB 5:01 09-I'm Yours
––––––––––––––––––––––––––––––––––––––––

Number of tracks: 9
Official DR value: DR14

Samplerate: 192000 Hz
Channels: 2
Bits per sample: 24
Bitrate: 4870 kbps
Codec: FLAC
================================================================================



Prince - Classic Albums Collection 1978-1986 (2013) [Official Digital Download 24 bit/192 kHz]

Prince - Prince (1979/2013)
FLAC (tracks) 24 bit/192 kHz | Time - 41:05 minutes | 1,44 GB
FLAC (tracks) 24 bit/96 kHz | Time - 41:05 minutes | 844 MB
Studio Master, Official Digital Download | Artwork: Front cover

Prince is the second studio album by Prince, originally released in October 1979. It was written, produced, and performed entirely by Prince himself, and is a harbinger of what Prince would be capable of in his future albums. The song "I Feel for You" is a true masterpiece, all the more incredible given the fact Prince was only 20 years old when he recorded the album. Other great singles from this album include "I Wanna Be Your Lover" and "Why You Wanna Treat Me So Bad?"

Expanding the urban R&B and funk approach of his debut, Prince is a considerably more accomplished record than his first effort, featuring the first signs of his adventurous, sexy signature sound. Although the album is still rather uneven, a handful of songs rank as classics. "I Wanna Be Your Lover" is excellent lite funk and "Why You Wanna Treat Me So Bad?" is a wonderful soulful plea, but "I Feel for You," a sexy slice of urban R&B with a strong pop melody, is the true masterpiece of Prince, indicating the major breakthroughs of his next album, Dirty Mind.

Tracklist:

01 - I Wanna Be Your Lover
02 - Why You Wanna Treat Me So Bad?
03 - Sexy Dancer
04 - When We're Dancing Close and Slow
05 - With You
06 - Bambi
07 - Still Waiting
08 - I Feel for You
09 - It's Gonna Be Lonely

Analyzed: Prince / Prince
––––––––––––––––––––––––––––––––––––––––

DR Peak RMS Duration Track
––––––––––––––––––––––––––––––––––––––––
DR16 -0.02 dB -18.22 dB 5:50 01-I Wanna Be Your Lover
DR13 -0.45 dB -17.37 dB 3:49 02-Why You Wanna Treat Me So Bad?
DR17 -0.24 dB -19.22 dB 4:19 03-Sexy Dancer
DR17 -4.61 dB -25.85 dB 5:19 04-When We're Dancing Close and Slow
DR16 -0.98 dB -21.05 dB 4:00 05-With You
DR14 0.00 dB -17.43 dB 4:24 06-Bambi
DR15 -2.43 dB -20.64 dB 4:28 07-Still Waiting
DR16 -1.17 dB -19.11 dB 3:24 08-I Feel for You
DR15 -1.47 dB -20.22 dB 5:31 09-It's Gonna Be Lonely
––––––––––––––––––––––––––––––––––––––––

Number of tracks: 9
Official DR value: DR16

Samplerate: 192000 Hz
Channels: 2
Bits per sample: 24
Bitrate: 4694 kbps
Codec: FLAC
================================================================================



Prince - Classic Albums Collection 1978-1986 (2013) [Official Digital Download 24 bit/192 kHz]

Prince - Dirty Mind (1980/2013)
FLAC (tracks) 24 bit/192 kHz | Time - 30:03 minutes | 1,03 GB
FLAC (tracks) 24 bit/96 kHz | Time - 30:03 minutes | 597 MB
Studio Master, Official Digital Download | Artwork: Front cover

Neither For You nor Prince was adequate preparation for the full-blown masterpiece of Prince's third album, Dirty Mind. Recorded in his home studio, with Prince playing nearly every instrument, Dirty Mind is a stunning, audacious amalgam of funk, new wave, R&B, and pop, fueled by grinningly salacious sex and the desire to shock. Where other pop musicians suggested sex in lewd double-entendres, Prince left nothing to hide – before its release, no other rock or funk record was ever quite as explicit as Dirty Mind, with its gleeful tales of oral sex, threesomes, and even incest. Certainly, it opened the doors for countless sexually explicit albums, but to reduce its impact to mere profanity is too reductive – the music of Dirty Mind is as shocking as its graphic language, bending styles and breaking rules with little regard for fixed genres. Basing the album on a harder, rock-oriented beat more than before, Prince tries everything – there's pure new wave pop ("When You Were Mine"), soulful crooning ("Gotta Broken Heart Again"), robotic funk ("Dirty Mind"), rock & roll ("Sister"), sultry funk ("Head," "Do It All Night"), and relentless dance jams ("Uptown," "Partyup"), all in the space of half an hour. It's a breathtaking, visionary album, and its fusion of synthesizers, rock rhythms, and funk set the style for much of the urban soul and funk of the early '80s.

Tracklist:

01 - Dirty Mind
02 - When You Were Mine
03 - Do It All Night
04 - Gotta Broken Heart Again
05 - Uptown
06 - Head
07 - Sister
08 - Partyup

Analyzed: Prince / Dirty Mind
––––––––––––––––––––––––––––––––––––––––

DR Peak RMS Duration Track
––––––––––––––––––––––––––––––––––––––––
DR16 -0.08 dB -17.35 dB 4:14 01-Dirty Mind
DR15 -2.07 dB -19.29 dB 3:46 02-When You Were Mine
DR15 -0.97 dB -17.80 dB 3:42 03-Do It All Night
DR15 -1.84 dB -20.60 dB 2:16 04-Gotta Broken Heart Again
DR16 -0.12 dB -18.30 dB 5:30 05-Uptown
DR15 -1.61 dB -18.63 dB 4:42 06-Head
DR13 -1.59 dB -17.29 dB 1:31 07-Sister
DR15 -0.69 dB -18.17 dB 4:23 08-Partyup
––––––––––––––––––––––––––––––––––––––––

Number of tracks: 8
Official DR value: DR15

Samplerate: 192000 Hz
Channels: 2
Bits per sample: 24
Bitrate: 4755 kbps
Codec: FLAC
================================================================================



Prince - Classic Albums Collection 1978-1986 (2013) [Official Digital Download 24 bit/192 kHz]

Prince - Controversy (1981/2013)
FLAC (tracks) 24 bit/192 kHz | Time - 37:08 minutes | 1,27 GB
FLAC (tracks) 24 bit/96 kHz | Time - 37:08 minutes | 737 MB
Studio Master, Official Digital Download | Artwork: Front cover

Composed, produced, arranged and performed by Prince, Controversy is the music icon’s 1981 classic. Reaching #3 on Billboard’s Top R&B Albums, the work features the hit R&B singles “Controversy” and “Let’s Work.” This undeniable masterpiece highlights Prince’s remarkable musicianship. The outing received four stars from Blender and Rolling Stone.

Controversy continues in the same vein of new wave-tinged funk on Dirty Mind, emphasizing Prince's fascination with synthesizers and synthesizing disparate pop music genres. It is also more ambitious than its predecessor, attempting to tackle social protest ("Controversy," "Ronnie, Talk to Russia," "Annie Christian") along with sex songs ("Jack U Off," "Sexuality"), and it tries hard to bring funk to a rock audience and vice versa. Even with all of Prince's ambitions, the music on Controversy doesn't represent a significant breakthrough from Dirty Mind, and it is often considerably less catchy and memorable. Nevertheless, Prince's talents as musician make the record enjoyable, even if it isn't as compelling as most of his catalog.

Tracklist:

01 - Controversy
02 - Sexuality
03 - Do Me, Baby
04 - Private Joy
05 - Ronnie, Talk to Russia
06 - Let's Work
07 - Annie Christian
08 - Jack U Off

Analyzed: Prince / Controversy
––––––––––––––––––––––––––––––––––––––––

DR Peak RMS Duration Track
––––––––––––––––––––––––––––––––––––––––
DR17 -0.25 dB -18.81 dB 7:14 01-Controversy
DR14 -4.41 dB -21.08 dB 4:20 02-Sexuality
DR15 -2.33 dB -22.42 dB 7:44 03-Do Me, Baby
DR14 -2.58 dB -18.96 dB 4:28 04-Private Joy
DR13 -3.60 dB -18.98 dB 1:58 05-Ronnie, Talk to Russia
DR15 -0.87 dB -18.86 dB 3:53 06-Let's Work
DR13 -2.00 dB -19.76 dB 4:22 07-Annie Christian
DR13 -3.28 dB -19.83 dB 3:09 08-Jack U Off
––––––––––––––––––––––––––––––––––––––––

Number of tracks: 8
Official DR value: DR14

Samplerate: 192000 Hz
Channels: 2
Bits per sample: 24
Bitrate: 4743 kbps
Codec: FLAC
================================================================================



Prince - Classic Albums Collection 1978-1986 (2013) [Official Digital Download 24 bit/192 kHz]

Prince - 1999 (1982/2013)
FLAC (tracks) 24 bit/192 kHz | Time - 70:12 minutes | 2,52 GB
FLAC (tracks) 24 bit/96 kHz | Time - 70:12 minutes | 1,43 GB
Studio Master, Official Digital Download | Artwork: Front cover

1999 is the seminal masterpiece by Prince. It is his first to reach the Billboard Top Ten and was one of the bestselling albums of 1983. The outing features the breakthrough hits “1999,” “Delirious” and “Little Red Corvette.” The multi-instrumentalist incorporates thrilling synthesizers to produce one of his most innovative works to date. VH1, Slant Magazine, and Rolling Stone named 1999 one of the greatest albums of all time. In 2008, the album was inducted into the GRAMMY Hall of Fame.

Chart History/Awards:
- Reached #4 on Billboard's Top R&B Albums.
- Reached #9 on the Billboard 200.
- "1999" reached #4 on Billboard's Top R&B Singles.
- "Delirious" reached #8 on the Billboard Hot 100.
- Included on VH1, Slant Magazine and Rolling Stone's "Greatest Albums of All Time."
- Inducted into the GRAMMY® Hall of Fame.
- Allmusic.com - 5/5 stars.

With Dirty Mind, Prince had established a wild fusion of funk, rock, new wave, and soul that signaled he was an original, maverick talent, but it failed to win him a large audience. After delivering the sound-alike album, Controversy, Prince revamped his sound and delivered the double album 1999. Where his earlier albums had been a fusion of organic and electronic sounds, 1999 was constructed almost entirely on synthesizers by Prince himself. Naturally, the effect was slightly more mechanical and robotic than his previous work and strongly recalled the electro-funk experiments of several underground funk and hip-hop artists at the time. Prince had also constructed an album dominated by computer funk, but he didn't simply rely on the extended instrumental grooves to carry the album – he didn't have to when his songwriting was improving by leaps and bounds. The first side of the record contained all of the hit singles, and, unsurprisingly, they were the ones that contained the least amount of electronics. "1999" parties to the apocalypse with a P-Funk groove much tighter than anything George Clinton ever did, "Little Red Corvette" is pure pop, and "Delirious" takes rockabilly riffs into the computer age. After that opening salvo, all the rules go out the window – "Let's Pretend We're Married" is a salacious extended lust letter, "Free" is an elegiac anthem, "All the Critics Love U in New York" is a vicious attack at hipsters, and "Lady Cab Driver," with its notorious bridge, is the culmination of all of his sexual fantasies. Sure, Prince stretches out a bit too much over the course of 1999, but the result is a stunning display of raw talent, not wallowing indulgence.

Tracklist:

01 - 1999
02 - Little Red Corvette
03 - Delirious
04 - Let's Pretend We're Married
05 - D.M.S.R.
06 - Automatic
07 - Something In The Water (Does Not Compute)
08 - Free
09 - Lady Cab Driver
10 - All The Critics Love U In New York
11 - International Lover

Analyzed: Prince / 1999
––––––––––––––––––––––––––––––––––––––––

DR Peak RMS Duration Track
––––––––––––––––––––––––––––––––––––––––
DR13 -1.39 dB -16.87 dB 6:16 01-1999
DR11 -3.03 dB -17.15 dB 4:59 02-Little Red Corvette
DR12 -2.58 dB -18.00 dB 3:59 03-Delirious
DR13 -0.38 dB -15.79 dB 7:19 04-Let's Pretend We're Married
DR14 0.00 dB -16.12 dB 8:18 05-D.M.S.R.
DR13 -1.26 dB -18.10 dB 9:25 06-Automatic
DR13 -1.29 dB -18.61 dB 4:01 07-Something In The Water (Does Not Compute)
DR15 -0.65 dB -19.71 dB 5:07 08-Free
DR16 0.00 dB -18.98 dB 8:16 09-Lady Cab Driver
DR15 -4.55 dB -20.84 dB 5:56 10-All The Critics Love U In New York
DR15 -2.91 dB -22.53 dB 6:37 11-International Lover
––––––––––––––––––––––––––––––––––––––––

Number of tracks: 11
Official DR value: DR14

Samplerate: 192000 Hz
Channels: 2
Bits per sample: 24
Bitrate: 4595 kbps
Codec: FLAC
================================================================================



Prince - Classic Albums Collection 1978-1986 (2013) [Official Digital Download 24 bit/192 kHz]

Prince - Purple Rain (1984/2013)
FLAC (tracks) 24 bit/192 kHz | Time - 43:46 minutes | 1,59 GB
FLAC (tracks) 24 bit/96 kHz | Time - 43:46 minutes | 937 MB
Studio Master, Official Digital Download | Artwork: Front cover

Purple Rain is Prince’s 1984 masterpiece and one of the best albums in music history. This multi-Platinum classic has sold over twenty million copies worldwide, becoming one of the bestselling albums of all time. This chart-topping hit features the Top Ten singles “Purple Rain,” “Let’s Go Crazy” and “When Doves Cry.” It earned Prince two GRAMMY Awards and is featured on countless “Best of” lists including Time, Rolling Stone, VH1, Vanity Fair, Slant Magazine, Entertainment Weekly and many others. In 2012, the album was inducted into the Library of Congress’ National Recording Registry. This brilliant masterpiece is an essential addition to any collection.

Chart History/Awards:
- On Rolling Stone's "500 Greatest Albums of All Time."
- On Tempo's "Greatest Albums of the 1980s."
- #2 on Slant Magazine's "Best Albums of the 1980s."
- Inducted into the Library of Congress' National Recording Registry.
- One of Entertainment Weekly's "100 Best Movie Soundtracks."
- One of Vibe's "100 Essential Albums of the 20th Century."
- Reached #1 on the Billboard 200.
- "Let's Go Crazy" and "When Doves Cry" reached #1 on the Billboard Hot 100.
- Won two GRAMMY Awards.
- Allmusic.com - 5/5 stars, album pick.

Prince designed Purple Rain as the project that would make him a superstar, and, surprisingly, that is exactly what happened. Simultaneously more focused and ambitious than any of his previous records, Purple Rain finds Prince consolidating his funk and R&B roots while moving boldly into pop, rock, and heavy metal with nine superbly crafted songs. Even its best-known songs don't tread conventional territory: the bass-less "When Doves Cry" is an eerie, spare neo-psychedelic masterpiece; "Let's Go Crazy" is a furious blend of metallic guitars, Stonesy riffs, and a hard funk backbeat; the anthemic title track is a majestic ballad filled with brilliant guitar flourishes. Although Prince's songwriting is at a peak, the presence of the Revolution pulls the music into sharper focus, giving it a tougher, more aggressive edge. And, with the guidance of Wendy and Lisa, Prince pushed heavily into psychedelia, adding swirling strings to the dreamy "Take Me With U" and the hard rock of "Baby I'm a Star." Even with all of his new, but uncompromising, forays into pop, Prince hasn't abandoned funk, and the robotic jam of "Computer Blue" and the menacing grind of "Darling Nikki" are among his finest songs. Taken together, all of the stylistic experiments add up to a stunning statement of purpose that remains one of the most exciting rock & roll albums ever recorded.

Tracklist:

01 - Let's Go Crazy
02 - Take Me With U
03 - The Beautiful Ones
04 - Computer Blue
05 - Darling Nikki
06 - When Doves Cry
07 - I Would Die 4 U
08 - Baby I'm A Star
09 - Purple Rain

Analyzed: Prince / Purple Rain
––––––––––––––––––––––––––––––––––––––––

DR Peak RMS Duration Track
––––––––––––––––––––––––––––––––––––––––
DR11 -2.21 dB -16.66 dB 4:38 01-Let's Go Crazy
DR12 -2.82 dB -17.79 dB 3:53 02-Take Me With U
DR12 -2.01 dB -18.74 dB 5:13 03-The Beautiful Ones
DR13 -2.74 dB -19.05 dB 3:59 04-Computer Blue
DR11 -1.74 dB -16.85 dB 4:14 05-Darling Nikki
DR14 -2.39 dB -18.47 dB 5:53 06-When Doves Cry
DR16 -1.10 dB -19.26 dB 2:49 07-I Would Die 4 U
DR13 -0.09 dB -15.47 dB 4:24 08-Baby I'm A Star
DR13 -2.21 dB -18.93 dB 8:42 09-Purple Rain
––––––––––––––––––––––––––––––––––––––––

Number of tracks: 9
Official DR value: DR13

Samplerate: 192000 Hz
Channels: 2
Bits per sample: 24
Bitrate: 4812 kbps
Codec: FLAC
================================================================================



Prince - Classic Albums Collection 1978-1986 (2013) [Official Digital Download 24 bit/192 kHz]

Prince - Around The World In A Day (1985/2013)
FLAC (tracks) 24 bit/192 kHz | Time - 42:33 minutes | 1,54 GB
FLAC (tracks) 24 bit/96 kHz | Time - 42:33 minutes | 895 MB
Studio Master, Official Digital Download | Artwork: Front cover

Around The World In A Day is Prince’s double Platinum classic. This seminal masterpiece follows the success of Purple Rain, reaching #1 on the Billboard 200. Adding a variety of psychedelic elements to his sound, the albums features Top Ten hits including “America,” “Pop Life” and “Raspberry Beret”.

Purple Rain made Prince sound like he could do anything, but it still didn't prepare even his most fervent fans for the insular psychedelia of Around the World in a Day. Prince had made his interior world sound fascinating and utopian on Purple Rain, but Around the World in a Day is filled with cryptic religious imagery, bizarre mysticism, and confounding metaphors which were drenched in heavily processed guitars, shimmering keyboards, grandiose strings, and layers of vocals. As an album, the record is a bit impenetrable, requiring great demands of the listener, but individual songs do shine through: "Raspberry Beret" is a brilliant piece of neo-psychedelia with an indelible chorus, "Pop Life" is a snide swipe at stardom that emphasizes Prince's outsider status, "Condition of the Heart" is a fine ballad, "America" is a good funk jam, "Paisley Park" is heavy and slightly frightening guitar psychedelia, while the title track is a sunny, kaleidoscopic pastiche of Magical Mystery Tour. The problem is, only a handful of the songs have much substance outside of their detailed production and intoxicating performances, and the album has a creepy sense of paranoia that is eventually its undoing.

Tracklist:

01 - Around The World In A Day
02 - Paisley Park
03 - Condition Of The Heart
04 - Raspberry Beret
05 - Tamborine
06 - America
07 - Pop Life
08 - The Ladder
09 - Temptation

Analyzed: Prince / Around The World In A Day
––––––––––––––––––––––––––––––––––––––––

DR Peak RMS Duration Track
––––––––––––––––––––––––––––––––––––––––
DR13 -1.09 dB -17.21 dB 3:28 01-Around The World In A Day
DR13 -1.61 dB -17.83 dB 4:42 02-Paisley Park
DR12 -1.88 dB -20.50 dB 6:48 03-Condition Of The Heart
DR13 -1.12 dB -17.36 dB 3:33 04-Raspberry Beret
DR16 -0.87 dB -18.95 dB 2:45 05-Tamborine
DR15 -0.01 dB -16.77 dB 3:45 06-America
DR14 -2.37 dB -19.08 dB 3:43 07-Pop Life
DR14 -1.19 dB -18.43 dB 5:29 08-The Ladder
DR13 -0.22 dB -17.92 dB 8:21 09-Temptation
––––––––––––––––––––––––––––––––––––––––

Number of tracks: 9
Official DR value: DR14

Samplerate: 192000 Hz
Channels: 2
Bits per sample: 24
Bitrate: 4825 kbps
Codec: FLAC
================================================================================



Prince - Classic Albums Collection 1978-1986 (2013) [Official Digital Download 24 bit/192 kHz]

Prince - Parade: Music From The Motion Picture Under The Cherry Moon (1986/2013)
FLAC (tracks) 24 bit/192 kHz | Time - 40:53 minutes | 1,47 GB
FLAC (tracks) 24 bit/192 kHz | Time - 40:53 minutes | 870 MB
Studio Master, Official Digital Download | Artwork: Front cover

"Parade: Music From The Motion Picture Under The Cherry Moon" is Prince's eighth studio album and the last album that he did with The Revolution. It was released as the soundtrack to the 1986 film Under the Cherry Moon, which was directed by Prince, who also starred in the film. The album was mostly a solo effort by Prince, who plays most of the instruments on the album. Other musicians featured on the album include Lisa Coleman, Wendy Melvoin, Dr. Fink, Jonathan Melvoin, and Susannah Melvoin, as well as featuring several orchestral arrangements by Clare Fischer.

Undaunted by the criticism Around the World in a Day received, Prince continued to pursue his psychedelic inclinations on Parade, which also functioned as the soundtrack to his second film, Under the Cherry Moon. Originally conceived as a double album, Parade has the sprawling feel of a double record, even if it clocks in around 45 minutes. Prince & the Revolution shift musical moods and textures from song to song – witness how the fluttering psychedelia of "Christopher Tracy's Parade" gives way to the spare, jazzy funk of "New Position," which morphs into the druggy "I Wonder U" – and they're determined not to play it safe, even on the hard funk of "Girls and Boys" and "Mountains," as well as the stunning "Kiss," which hits hard with just a dry guitar, keyboard, drum machine, and layered vocals. All of the group's musical adventures, even the cabaret-pop of "Venus de Milo" and "Do U Lie?" do nothing to undercut the melodicism of the record, and the amount of ground they cover in 12 songs is truly remarkable. Even with all of its attributes, Parade is a little off-balance, stopping too quickly to give the haunting closer, "Sometimes It Snows in April," the resonance it needs. For some tastes, it may also be a bit too lyrically cryptic, but Prince's weird religious and sexual metaphors develop into a motif that actually gives the album weight. If it had been expanded to a double album, Parade would have equaled the subsequent Sign 'o' the Times, but as it stands, it's an astonishingly rewarding near-miss.

Tracklist:

01 - Christopher Tracy's Parade
02 - New Position
03 - I Wonder U
04 - Under The Cherry Moon
05 - Girls & Boys
06 - Life Can Be So Nice
07 - Venus De Milo
08 - Mountains
09 - Do U Lie?
10 - Kiss
11 - Anotherloverholenyohead
12 - Sometimes It Snows In April

Analyzed: Prince / Parade - Music From The Motion Picture Under The Cherry Moon
––––––––––––––––––––––––––––––––––––––––

DR Peak RMS Duration Track
––––––––––––––––––––––––––––––––––––––––
DR12 -0.61 dB -16.28 dB 2:11 01-Christopher Tracy's Parade
DR14 -0.36 dB -16.27 dB 2:20 02-New Position
DR13 -1.70 dB -17.40 dB 1:40 03-I Wonder U
DR17 -0.09 dB -20.63 dB 2:57 04-Under The Cherry Moon
DR14 -0.60 dB -17.77 dB 5:30 05-Girls & Boys
DR12 -1.55 dB -15.98 dB 3:13 06-Life Can Be So Nice
DR13 -8.26 dB -25.74 dB 1:55 07-Venus De Milo
DR13 -0.88 dB -16.38 dB 3:57 08-Mountains
DR13 -4.02 dB -19.36 dB 2:44 09-Do U Lie?
DR15 -1.40 dB -19.11 dB 3:37 10-Kiss
DR14 -0.71 dB -16.88 dB 4:00 11-Anotherloverholenyohead
DR14 -6.26 dB -24.19 dB 6:48 12-Sometimes It Snows In April
––––––––––––––––––––––––––––––––––––––––

Number of tracks: 12
Official DR value: DR14

Samplerate: 192000 Hz
Channels: 2
Bits per sample: 24
Bitrate: 4531 kbps
Codec: FLAC
================================================================================


Thanks to the Original customer(s)!