Procol Harum - A Salty Dog (1969) [MFSL 2017] PS3 ISO + Hi-Res FLAC

Posted By: HDAtall
Procol Harum - A Salty Dog (1969) [MFSL 2017] PS3 ISO + Hi-Res FLAC

Procol Harum - A Salty Dog (1969) [MFSL 2017]
PS3 Rip | SACD ISO | DSD64 2.0 > 1-bit/2.8224 MHz | 40:26 minutes | Scans included | 1,15 GB
or FLAC(converted with foobar2000 to tracks) 24bit/88,2 kHz | Full Scans included | 880 MB
Mobile Fidelity Sound Lab # UDSACD 2192

A Salty Dog is the third studio album by English progressive rock band Procol Harum, released in 1969. The album has an ostensibly nautical theme, as indicated by its cover (a pastiche of the famous Player's Navy Cut cigarette pack). Interspersed with straight rock, blues and pop items, A Salty Dog showed a slight change of direction from its predecessors, being thematically less obscure. The title track itself was the first Procol track to use an orchestra.

This album, the group's third, was where they showed just how far their talents extended across the musical landscape, from blues to R&B to classical rock. In contrast to their hastily recorded debut, or its successor, done to stretch their performance and composition range, A Salty Dog was recorded in a reasonable amount of time, giving the band a chance to fully develop their ideas. The title track is one of the finest songs ever to come from Procol Harum and one of the best pieces of progressive rock ever heard, and a very succinct example at that at under five minutes running time – the lyric and the music combine to form a perfect mood piece, and the performance is bold and subtle at once, in the playing and the singing, respectively. The range of sounds on the rest includes "Juicy John Pink," a superb piece of pre-World War II-style country blues, while "Crucifiction Lane" is a killer Otis Redding-style soul piece, and "Pilgrim's Progress" is a virtuoso keyboard workout.

Tracklist:

01. A Salty Dog
02. The Milk Of Human Kindness
03. Too Much Between Us
04. The Devil Came From Kansas
05. Boredom
06. Juicy John Pink
07. Wreck Of The Hesperus
08. All This And More
09. Crucifiction Lane
10. Pilgrims Progress

Mastered by Rob LoVerde at Mobile Fidelity Sound Lab, Sebastopol, CA.

foobar2000 1.3.16 / Dynamic Range Meter 1.1.1

––––––––––––––––––––––––––––––––––––––––
Analyzed: PROCOL HARUM / A Salty Dog
––––––––––––––––––––––––––––––––––––––––

DR Peak RMS Duration Track
––––––––––––––––––––––––––––––––––––––––
DR10 -7.30 dB -22.56 dB 4:40 01-A Salty Dog
DR10 -6.86 dB -20.62 dB 3:44 02-The Milk Of Human Kindness
DR10 -10.84 dB -26.55 dB 3:42 03-Too Much Between Us
DR9 -8.68 dB -19.28 dB 4:35 04-The Devil Came From Kansas
DR11 -8.75 dB -23.62 dB 4:33 05-Boredom
DR12 -7.97 dB -22.76 dB 2:05 06-Juicy John Pink
DR9 -7.81 dB -18.97 dB 3:46 07-Wreck Of The Hesperus
DR10 -7.58 dB -20.44 dB 3:49 08-All This And More
DR12 -6.48 dB -20.98 dB 5:01 09-Crucifiction Lane
DR11 -6.42 dB -20.90 dB 4:29 10-Pilgrims Progress
––––––––––––––––––––––––––––––––––––––––

Number of tracks: 10
Official DR value: DR10

Samplerate: 2822400 Hz / PCM Samplerate: 88200 Hz
Channels: 2
Bits per sample: 1
Bitrate: 5645 kbps
Codec: DSD64


Thanks to PS³SACD!
Uncompressed SACD ISO size > 1,64 GB
>