Ray Conniff - Laughter In The Rain & Love Will Keep Us Together (2016) [2.0 & 5.1] PS3 ISO + Hi-Res FLAC

Posted By: HDAtall
Ray Conniff - Laughter In The Rain & Love Will Keep Us Together (2016) [2.0 & 5.1] PS3 ISO + Hi-Res FLAC

Ray Conniff - Laughter In The Rain & Love Will Keep Us Together (1975/2016)
PS3 Rip | SACD ISO | DST64 2.0 & 5.1 > 1-bit/2.8224 MHz | 68:56 minutess | Scans included | 3,13 GB
or FLAC 2.0 Stereo (converted with foobar2000 to tracks) 24bit/88,2 kHz | Scans included | 1,41 GB

The man who popularized wordless vocal choruses and light orchestral accompaniment on a mix of popular standards and contemporary hits of the 1960s, Ray Conniff was a trombone player for Bunny Berigan's Orchestra and Bob Crosby's Bobcats before being hired as an arranger by Mitch Miller for Columbia Records in 1954. After he wrote the charts for several sizeable Columbia hits during the mid-'50s, Conniff became a solo artist as well, applying his arranging techniques to instrumental easy listening for the booming adult album market. The result, 12 Top Ten LPs and well over 50 million total albums sold, cemented his status as one of the top LP sellers of all time, but his increasingly watered-down and commercially focused arrangements gained few young fans by the end of the '60s. Though he continued recording and touring the world into the '90s, Conniff's albums slipped off the charts in the early '70s. This SACD release combines 2 LP on 1 SACD - "Laughter In The Rain" & "Love Will Keep Us Together", both were released in 1975.

Tracklist:

01. Laughter in the Rain
02. I Honestly Love You
03. Sundown
04. Angie Baby
05. Mandy
06. Seasons in the Sun
07. Eres Tu
08. Cats in the Cradle
09. Feel Like Makin Love
10. Youre Having My Baby
11. Please Mr Please
12. Midnight Blue
13. Rhinestone Cowboy and Wildfire
14. Feelings
15. My Little Friend
16. Im Sorry
17. At Seventeen
18. Solitaire
19. Love Will Keep Us Together

Tracks "01-10" is "Laughter In The Rain" (LP '1975)
Tracks "11-20" is "Love Will Keep Us Together" (LP '1975).
Remastered from the Original Master tapes by Michael J. Dutton.

foobar2000 1.3.14 / Dynamic Range Meter 1.1.1

––––––––––––––––––––––––––––––––––––––––
Analyzed: Ray Conniff / Laughter In the Rain
––––––––––––––––––––––––––––––––––––––––

DR Peak RMS Duration Track
––––––––––––––––––––––––––––––––––––––––
DR9 -6.58 dB -26.30 dB 3:13 01-Laughter in the Rain
DR7 -11.87 dB -29.06 dB 3:34 02-I Honestly Love You
DR8 -11.60 dB -28.03 dB 3:32 03-Sundown
DR9 -8.55 dB -28.40 dB 3:29 04-Angie Baby
DR8 -10.76 dB -27.93 dB 3:09 05-Mandy
DR8 -13.54 dB -29.62 dB 3:31 06-Seasons in the Sun
DR7 -12.06 dB -26.54 dB 2:47 07-Eres Tu
DR9 -9.15 dB -27.24 dB 3:46 08-Cats in the Cradle
DR7 -10.51 dB -27.26 dB 3:06 09-Feel Like Makin Love
DR8 -10.41 dB -28.87 dB 2:53 10-Youre Having My Baby
DR8 -9.32 dB -27.53 dB 3:02 11-Please Mr Please
DR7 -10.21 dB -26.80 dB 3:08 12-Midnight Blue
DR8 -9.50 dB -26.30 dB 6:17 13-Rhinestone Cowboy and Wildfire
DR7 -10.42 dB -25.93 dB 3:39 14-Feelings
DR7 -11.89 dB -27.62 dB 2:39 15-My Little Friend
DR8 -8.19 dB -25.05 dB 4:01 16-Im Sorry
DR8 -9.42 dB -26.44 dB 4:28 17-At Seventeen
DR8 -9.25 dB -25.78 dB 3:40 18-Solitaire
DR9 -8.85 dB -26.05 dB 5:02 19-Love Will Keep Us Together
––––––––––––––––––––––––––––––––––––––––

Number of tracks: 19
Official DR value: DR8

Samplerate: 2822400 Hz / PCM Samplerate: 88200 Hz
Channels: 6
Bits per sample: 1
Bitrate: 16934 kbps
Codec: DST64
================================================================================

––––––––––––––––––––––––––––––––––––––––
Analyzed: Ray Conniff / Laughter In the Rain
––––––––––––––––––––––––––––––––––––––––

DR Peak RMS Duration Track
––––––––––––––––––––––––––––––––––––––––
DR11 -7.51 dB -21.90 dB 3:13 01-Laughter in the Rain
DR10 -10.00 dB -23.86 dB 3:34 02-I Honestly Love You
DR10 -11.67 dB -23.06 dB 3:32 03-Sundown
DR12 -8.20 dB -23.64 dB 3:29 04-Angie Baby
DR13 -8.62 dB -24.26 dB 3:09 05-Mandy
DR11 -10.86 dB -25.33 dB 3:31 06-Seasons in the Sun
DR10 -11.11 dB -23.16 dB 2:47 07-Eres Tu
DR13 -9.78 dB -24.87 dB 3:46 08-Cats in the Cradle
DR10 -11.11 dB -23.80 dB 3:06 09-Feel Like Makin Love
DR10 -10.67 dB -24.39 dB 2:53 10-Youre Having My Baby
DR13 -7.53 dB -24.89 dB 3:02 11-Please Mr Please
DR13 -8.22 dB -24.49 dB 3:08 12-Midnight Blue
DR12 -8.39 dB -24.43 dB 6:17 13-Rhinestone Cowboy and Wildfire
DR11 -9.60 dB -23.71 dB 3:39 14-Feelings
DR11 -9.75 dB -23.25 dB 2:39 15-My Little Friend
DR12 -9.41 dB -24.38 dB 4:01 16-Im Sorry
DR11 -9.44 dB -23.27 dB 4:28 17-At Seventeen
DR12 -8.62 dB -24.20 dB 3:40 18-Solitaire
DR13 -8.08 dB -23.84 dB 5:02 19-Love Will Keep Us Together
––––––––––––––––––––––––––––––––––––––––

Number of tracks: 19
Official DR value: DR11

Samplerate: 2822400 Hz / PCM Samplerate: 88200 Hz
Channels: 2
Bits per sample: 1
Bitrate: 5645 kbps
Codec: DST64


Thanks to KingCrim!
Uncompressed SACD ISO size > 2,96 GB
>