Richard Cheese & Lounge Against The Machine - Cocktails with Santa (2013) [Official Digital Download]

Posted By: HDV
Richard Cheese & Lounge Against The Machine - Cocktails with Santa (2013) [Official Digital Download]

Richard Cheese - Cocktails with Santa (2013)
FLAC (tracks) 24 bit/44,1 kHz | Time - 27:25 minutes | 278 MB
Studio Master, Official Digital Download | Artwork: Digital booklet

America's loudest lounge singer Richard Cheese performs swingin' Vegas versions of Rock and Rap songs, "swankifying" popular Top 40 hits into Retro Vocal standards. Imagine Sinatra singing Radiohead, and you've got Richard Cheese & Lounge Against The Machine… Since 2000, Cheese has released 15 albums and sold more than 200,000 CDs.

Tracklist:

01 - Jingle Bells
02 - We Wish You A Merry Christmas
03 - Christmas In Las Vegas [New 2013 Version]
04 - O Christmas Tree
05 - The Dreidel Song
06 - Deck The Halls
07 - Greensleeves [Instrumental]
08 - Hannukah In Las Vegas [Original song by Richard Cheese]
09 - Cocktails With Santa
10 - Auld Lang Syne
11 - Richard Cheese's Birthday Song For Jesus
12 - Little Drummer Boy

Analyzed: Richard Cheese / "Cocktails with Santa" (2013)
––––––––––––––––––––––––––––––––––––––––

DR Peak RMS Duration Track
––––––––––––––––––––––––––––––––––––––––
DR12 -0.20 dB -13.72 dB 2:16 01-Jingle Bells
DR12 -0.70 dB -14.84 dB 1:22 02-We Wish You A Merry Christmas
DR11 -0.20 dB -12.52 dB 2:28 03-Christmas In Las Vegas (New 2013 Version!)
DR11 -0.20 dB -12.57 dB 1:44 04-O Christmas Tree
DR13 -0.20 dB -15.56 dB 2:07 05-The Dreidel Song
DR11 -0.20 dB -13.10 dB 1:24 06-Deck The Halls
DR11 -0.20 dB -12.59 dB 2:45 07-Greensleeves (Instrumental)
DR12 -0.20 dB -13.50 dB 2:29 08-Hannukah In Las Vegas (original song by Richard Cheese)
DR16 -0.20 dB -20.89 dB 5:46 09-Cocktails With Santa
DR12 -0.20 dB -16.04 dB 1:38 10-Auld Lang Syne
DR16 -0.20 dB -16.01 dB 0:12 11-Richard Cheese's Birthday Song For Jesus
DR14 -0.20 dB -19.83 dB 3:14 12-Little Drummer Boy
––––––––––––––––––––––––––––––––––––––––

Number of tracks: 12
Official DR value: DR12

Samplerate: 44100 Hz
Channels: 2
Bits per sample: 24
Bitrate: 1038 kbps
Codec: FLAC
================================================================================


Thanks to the Original customer!