Ringo Starr - Give More Love (2017) [Official Digital Download 24/96]

Posted By: delpotro
Ringo Starr - Give More Love (2017) [Official Digital Download 24/96]

Ringo Starr - Give More Love (2017)
FLAC (tracks) 24-bit/96 kHz | Time - 52:40 minutes | 1.06 GB
Studio Master, Official Digital Download | Artwork: Front Cover

Give More Love is the upcoming nineteenth studio album by English musician Ringo Starr. The album was announced on 7 July 2017, Starr's 77th birthday, with the release of the title song as the first single. The album is scheduled to be released on 15 September 2017 by UMe, and features appearances by Starr's former Beatles bandmate Paul McCartney, as well as frequent collaborators such as Joe Walsh, Dave Stewart, Gary Nicholson, and members of the All-Starr Band.

Starr began working on the album following the release of Postcards from Paradise and a tour with his All-Starr Band. Starr initially recruited longtime collaborator Dave Stewart to help him produce a country album in Nashville, but ultimately ended up recording mostly rock tracks in his home studio. The album features a number of Starr's regular collaborators, including former and current All-Starr band members Steve Lukather, Peter Frampton, Joe Walsh, Edgar Winter, and Timothy B. Schmit.

Starr's former Beatles bandmate Paul McCartney plays bass on a pair of tracks and sings backing vocals. Starr announced McCartney's appearance on the album via Twitter.

The album consists of ten new original tracks and four bonus tracks; the bonus tracks are all re-recordings of songs previously released by Starr. The re-recording of Starr's single "Back Off Boogaloo" is based on Starr's original demo of the song and features Electric Light Orchestra founder Jeff Lynne and Eagles member Joe Walsh on guitar, the re-recording of "You Can't Fight Lightning" from Stop and Smell the Roses features the Swedish band Alberta Cross, and the re-recordings of Starr's song "Photograph" and his Beatles song "Don't Pass Me By" feature the American band Vandaveer.

Starr officially announced the album on 7 July 2017, his 77th birthday, and simultaneously released the title track as a single via streaming services and digital download. The track "We're On the Road Again", featuring McCartney, Lukather, Walsh, and Winter, was released as a second single on July 28, 2017. The country track "So Wrong For So Long" was released as a single on August 18, 2017. The album is set for a CD and digital release on 15 September 2017, with a vinyl release set one week later on 22 September.
1. We're on the Road Again
2. Laughable
3. Show Me the Way
4. Speed of Sound
5. Standing Still
6. King of the Kingdom
7. Electricity
8. So Wrong for So Long
9. Shake It Up
10. Give More Love
11. Back Off Boogaloo (Re-do)
12. Don't Pass Me By (Re-do)
13. You Can't Fight Lighting (Re-do) [with Alberta Cross]
14. Photograph (with Vandaveer)

foobar2000 1.1.10 / Dynamic Range Meter 1.1.1
log date: 2017-09-15 12:43:34

Analyzed: Alberta Cross & Ringo Starr / Give More Love (1)
Ringo Starr / Give More Love (2-13)
Vandaveer & Ringo Starr / Give More Love (14)

DR Peak RMS Duration Track
DR12 0.00 dB -12.80 dB 4:21 ?-You Can't Fight Lighting (Re-do)
DR8 0.00 dB -9.04 dB 4:24 ?-We're On The Road Again
DR10 0.00 dB -11.38 dB 2:58 ?-Laughable
DR9 0.00 dB -10.87 dB 4:42 ?-Show Me The Way
DR10 0.00 dB -10.60 dB 3:45 ?-Speed Of Sound
DR9 0.00 dB -10.90 dB 3:05 ?-Standing Still
DR11 0.00 dB -12.37 dB 4:36 ?-King Of The Kingdom
DR10 0.00 dB -10.95 dB 3:37 ?-Electricity
DR10 -0.04 dB -12.17 dB 4:02 ?-So Wrong For So Long
DR10 0.00 dB -11.43 dB 3:01 ?-Shake It Up
DR10 0.00 dB -11.19 dB 4:01 ?-Give More Love
DR11 0.00 dB -12.22 dB 2:54 ?-Back Off Boogaloo (Re-do)
DR11 0.00 dB -12.78 dB 3:38 ?-Don't Pass Me By (Re-do)
DR11 0.00 dB -12.72 dB 3:36 ?-Photograph

Number of tracks: 14
Official DR value: DR10

Samplerate: 96000 Hz
Channels: 2
Bits per sample: 24
Bitrate: 2647 kbps
Codec: FLAC

Thanks to the Original customer pirs18 !