The Roma Trio - Love Is A Many-Splendored Thing (2007) [Japan 2015] SACD ISO + Hi-Res FLAC

Posted By: HDAtall
The Roma Trio - Love Is A Many-Splendored Thing (2007) [Japan 2015] SACD ISO + Hi-Res FLAC

Roma Trio - Love Is A Many-Splendored Thing (2007) [Japan 2015]
SACD Rip | SACD ISO | DSD64 2.0 > 1-bit/2.8224 MHz | 60:09 minutes | Front/Rear Covers | 1,9 GB
or FLAC(converted with foobar2000 to tracks) 24bit/88,2 kHz | Front/Rear Covers | 1,28 GB

Venus Records owner and producer Tetsuo Hara is known for recruiting various American jazz musicians for record dates during his regular trips to New York City, but he is also spending time in Europe, where he recruited the Roma Trio for this excellent album. Unless they gain exposure in the U.S. through appearing on American recordings or performing in New York City, European jazz musicians have a tough time getting recognized in the West. But Hara has long since learned the preferences of the Japanese jazz market, which readily seems to absorb bands he has introduced through his label.

Pianist Luca Mannutza, bassist Gianluca Renzi, and drummer Nicola Angelucci tackle a program that includes typical standards, a few overlooked chestnuts, time-tested jazz favorites, and more. The often banal "Love Is a Many-Splendored Thing" is an unusual choice for an opener, but the Roma Trio don't play it strictly as a slow ballad, nor do they take that approach with the popular "If I Should Lose You," preferring to set up the tune and then launch into rapid-fire bop. "On Green Dolphin Street" is often played by jazz groups with little thought, but the addition of Renzi's infectious vamp provides a novel approach. The pianist's adaptation of Sonny Rollins' "Airegin" takes it a bit from the usual path, blending Brazilian rhythms and classical nuances.Angelucci contributed "Claudia's Nightmare," which sets up as a moody Latin ballad, only to detour frequently into brisk bop. One surprise is the ease with which rocker Sting's "Message in a Bottle" is transformed by the trio into an interesting jazz vehicle. It seems likely that the Roma Trio will gain a foothold in the Japanese jazz market with this potent release, though they deserve greater exposure worldwide.

Tracklist:

01. Love Is A Many-Splendored Thing
02. If I Should Lose You
03. Whisper Not
04. Airegin
05. On Green Dolphin Street
06. I Love You, Porgy
07. Tea For Two
08. Claudia's Nightmare
09. Message In A Bottle
10. Everything I Love

Produced, Mixed & Mastered by Tetsuo Hara. Engineered by Domenico Di Gregoria.
Recorded on July 2-3, 2007 at Wide Sound in Italy.
Venus Hyper Magnum Sound Direct Mix. VENUS Japan # VHGD-75.

Personnel
Luca Mannutza - piano
Gianluca Renzi - bass
Nicola Angelucci - drums

foobar2000 1.3.17 / Dynamic Range Meter 1.1.1

––––––––––––––––––––––––––––––––––––––––
Analyzed: Roma Trio / LOVE IS A MANY-SPLENDORED THING
––––––––––––––––––––––––––––––––––––––––

DR Peak RMS Duration Track
––––––––––––––––––––––––––––––––––––––––
DR9 -4.20 dB -16.39 dB 5:11 01-Love Is A Many-Splendored Thing
DR8 -4.55 dB -15.79 dB 4:35 02-If I Should Lose You
DR10 -4.75 dB -17.79 dB 8:59 03-Whisper Not
DR10 -4.68 dB -16.61 dB 4:42 04-Airegin
DR8 -4.39 dB -16.44 dB 5:22 05-On Green Dolphin Street
DR12 -5.18 dB -20.84 dB 4:36 06-I Love You, Porgy
DR10 -4.43 dB -16.68 dB 5:28 07-Tea For Two
DR10 -4.62 dB -17.13 dB 6:46 08-Claudia's Nightmare
DR9 -4.45 dB -16.03 dB 7:42 09-Message In A Bottle
DR9 -4.47 dB -16.85 dB 6:44 10-Everything I Love
––––––––––––––––––––––––––––––––––––––––

Number of tracks: 10
Official DR value: DR9

Samplerate: 2822400 Hz / PCM Samplerate: 88200 Hz
Channels: 2
Bits per sample: 1
Bitrate: 5645 kbps
Codec: DSD64


Thanks to jazzyman!
Uncompressed SACD ISO size > 2,43 GB
>