Subcategories

Rush - Grace Under Pressure (1984/2015) [Official Digital Download 24/48]

Posted By: HDV
Rush - Grace Under Pressure (1984/2015) [Official Digital Download 24/48]

Rush - Grace Under Pressure (1984/2015)
FLAC (tracks) 24-bit/48 kHz | Time - 39:41 minutes | 527 MB
Studio Master, Official Digital Download | Artwork: Front cover

Largely considered one of Rush's darkest albums, the million-selling Grace Under Pressure was a response to growing tensions in the Cold War in the 1980s. The album’s running theme is “pressure” and how humans act under its influence. Despite the bleakness of the songs, the band balances elements of ska, funk and reggae and an increasing use of synthesizers and electronics with consistently strong songwriting and typical instrumental virtuosity.

Grace Under Pressure was the first Rush album since 1975's Fly by Night to not be produced by Terry Brown, who was replaced by Peter Henderson (Supertramp, Paul McCartney). The change resulted in a slightly more accessible sound than its predecessor, Signals, and marked the beginning of a period where many Rush fans feel that synths and electronics were used too prominently – in effect pushing guitarist Alex Lifeson into the background. The songwriting and lyrics were still strong however, as evidenced by the video/single "Distant Early Warning" (a tale about nuclear war) and the often-overlooked highlight "Kid Gloves," one of the album's few songs to feature Lifeson upfront. Other standouts include a tribute to a friend of the band who had recently passed away, "Afterimage," the disturbing "Red Sector A" (which details a concentration camp), and one of Rush's first funk-based songs, "The Enemy Within." Whereas most other rock bands formed in the 1970s put out unfocused and uninspired work in the 1980s (which sounds very dated), Rush's Grace Under Pressure remains an exception.

Tracklist:

01 - Distant Early Warning
02 - Afterimage
03 - Red Sector A
04 - The Enemy Within
05 - The Body Electric
06 - Kid Gloves
07 - Red Lenses
08 - Between The Wheels

Analyzed: Rush / Grace Under Pressure
––––––––––––––––––––––––––––––––––––––––

DR Peak RMS Duration Track
––––––––––––––––––––––––––––––––––––––––
DR12 -1.38 dB -15.49 dB 4:57 01-Distant Early Warning
DR12 -0.83 dB -13.78 dB 5:05 02-Afterimage
DR12 -0.65 dB -14.41 dB 5:11 03-Red Sector A
DR12 -0.86 dB -14.44 dB 4:36 04-The Enemy Within
DR14 -0.37 dB -16.79 dB 5:01 05-The Body Electric
DR12 -1.25 dB -15.58 dB 4:21 06-Kid Gloves
DR13 -1.10 dB -16.69 dB 4:45 07-Red Lenses
DR12 -1.10 dB -14.96 dB 5:46 08-Between The Wheels
––––––––––––––––––––––––––––––––––––––––

Number of tracks: 8
Official DR value: DR12

Samplerate: 48000 Hz
Channels: 2
Bits per sample: 24
Bitrate: 1805 kbps
Codec: FLAC
================================================================================


Thanks to the Original customer!