Sally Night - Ballads For You (2012) [Japan 2014] SACD ISO + Hi-Res FLAC

Posted By: HDAtall
Sally Night - Ballads For You (2012) [Japan 2014] SACD ISO + Hi-Res FLAC

Sally Night - Ballads For You (2012) [Japan 2014]
SACD Rip | SACD ISO | DSD64 2.0 > 1-bit/2.8224 MHz | 72:06 minutes | Front/Rear Covers | 2,2 GB
or FLAC(converted with foobar2000 to tracks) 24bit/88,2 kHz | Front/Rear Covers | 1,51 GB

British singer, songwriter, and composer Sally Night followed her stunning Venus debut album, "Love For Sale", with a brand-new second album, "Ballads For You". As the title suggests, it is a collection of beautiful ballads, 13 standards and two originals. Night is backed by supremely talented, first-rate New York-based musicians: Jon Davis on piano, Dezron Douglas on bass, Willie Jones III on drums and Romero Lubambo on guitar. The selections showcase her sophisticated singing technique and her personal style.

Tracklist:

01. More Than You Know
02. It Amazes Me
03. Everything I've Got Belongs To You
04. In Love In Vain
05. Fascinating Star
06. Everything Happens To Me
07. Good Morning Heartache
08. I Hadn't Anyone Till You
09. London By Night Is A Wonderful Sight
10. Medley : Close To You ~ The Shadow Of Your Smile ~ It's Impossibl
11. Prelude To A Kiss
12. Round Midnight
13. Blame It On My Youth
14. Speak Low
15. Yes I Do

Produced by Tetsuo Hara & Sally Night. Arranged by Sally Night.
Engineered by Todd Whitelock. Mixed & Mastered by Tetsuo Hara.
Recorded on October 17-18 2012 at Avatar Studio In New York.
Venus Hyper Magnum Sound Direct Mix. VENUS Japan # VHGD-45.

Personnel
Sally Night - vocals
Romero Lubambo - guitar
Jon Davis - piano
Dezron Douglas - double bass
Willie Jones III - drums

foobar2000 1.3.16 / Dynamic Range Meter 1.1.1

––––––––––––––––––––––––––––––––––––––––
Analyzed: Sally Night / BALLADS FOR YOU
––––––––––––––––––––––––––––––––––––––––

DR Peak RMS Duration Track
––––––––––––––––––––––––––––––––––––––––
DR6 -6.45 dB -14.23 dB 4:06 01-More Than You Know
DR6 -6.73 dB -15.91 dB 4:53 02-It Amazes Me
DR6 -6.34 dB -14.45 dB 5:02 03-Everything I've Got Belongs To You
DR6 -6.19 dB -15.11 dB 4:06 04-In Love In Vain
DR7 -6.72 dB -15.25 dB 4:33 05-Fascinating Star
DR6 -6.75 dB -14.90 dB 4:49 06-Everything Happens To Me
DR5 -6.51 dB -13.63 dB 5:07 07-Good Morning Heartache
DR7 -7.02 dB -17.38 dB 4:15 08-I Hadn't Anyone Till You
DR6 -6.39 dB -14.61 dB 5:19 09-London By Night Is A Wonderful Sight
DR6 -6.33 dB -15.02 dB 7:26 10-Medley : Close To You ~ The Shadow Of Your Smile ~ It's Impossibl
DR7 -6.99 dB -15.48 dB 4:53 11-Prelude To A Kiss
DR6 -6.76 dB -14.52 dB 5:58 12-Round Midnight
DR6 -6.87 dB -16.44 dB 3:22 13-Blame It On My Youth
DR6 -6.20 dB -14.09 dB 4:13 14-Speak Low
DR7 -5.55 dB -14.85 dB 4:04 15-Yes I Do
––––––––––––––––––––––––––––––––––––––––

Number of tracks: 15
Official DR value: DR6

Samplerate: 2822400 Hz / PCM Samplerate: 88200 Hz
Channels: 2
Bits per sample: 1
Bitrate: 5645 kbps
Codec: DSD64


Thanks to jazzyman!
Uncompressed SACD ISO size > 2,88 GB

Sally Night - Love For Sale (2012)
>