Santana - Moonflower (1977/2014) [Official Digital Download 24-bit/96kHz] RE-UP

Posted By: HDV
Santana - Moonflower (1977/2014) [Official Digital Download 24-bit/96kHz] RE-UP

Santana - Moonflower (1977/2014)
FLAC (tracks) 24-bit/96 kHz | Time - 87:00 minutes | 1,91 GB
Studio Master, Official Digital Download | Artwork: Front cover

Moonflower is a combination live and studio double album by Santana and was originally released in 1977. Produced by Carlos Santana and Tom Coster, the album is a mix of Latin fusion and blues rock as well as experimental and spiritual jazz fusion. The album was a great success and has been certified 2x Platinum by the RIAA.

Santana, which was renowned for its concert work dating back to Woodstock, did not release a live album in the U.S. until this one, and it's only partially live, with studio tracks added, notably a cover of the Zombies' "She's Not There" (number 27) that became Santana's first Top 40 hit in five years. The usual comings and goings in band membership had taken place since last time; the track listing was a good mixture of the old – "Black Magic Woman," "Soul Sacrifice" – and the recent, and with the added radio play of a hit single, Moonflower went Top Ten and sold a million copies, the first new Santana album to do that since 1972 and the last until Supernatural in 1999.

Tracklist:

CD1 #01 - Dawn / Go Within
CD1 #02 - Carnaval
CD1 #03 - Let the Children Play
CD1 #04 - Jugando
CD1 #05 - I'll Be Waiting
CD1 #06 - Zulu
CD1 #07 - Bahia
CD1 #08 - Black Magic Woman / Gypsy Queen
CD1 #09 - Dance Sister Dance (Baila Mi Hermana)
CD1 #10 - Europa (Earth's Cry Heaven's Smile)

Analyzed: Santana / Moonflower
––––––––––––––––––––––––––––––––––––––––

DR Peak RMS Duration Track
––––––––––––––––––––––––––––––––––––––––
DR11 0.00 dB -13.31 dB 2:44 01-Dawn / Go Within
DR10 -0.48 dB -13.30 dB 2:20 02-Carnaval
DR10 -0.08 dB -11.09 dB 2:38 03-Let the Children Play
DR10 0.00 dB -10.82 dB 2:10 04-Jugando
DR12 0.00 dB -14.32 dB 5:15 05-I'll Be Waiting
DR11 0.00 dB -13.52 dB 3:22 06-Zulu
DR10 0.00 dB -12.89 dB 1:37 07-Bahia
DR10 0.00 dB -12.42 dB 6:33 08-Black Magic Woman / Gypsy Queen
DR10 0.00 dB -11.73 dB 7:45 09-Dance Sister Dance (Baila Mi Hermana)
DR10 -0.66 dB -14.55 dB 6:10 10-Europa (Earth's Cry Heaven's Smile)
––––––––––––––––––––––––––––––––––––––––

Number of tracks: 10
Official DR value: DR10

Samplerate: 96000 Hz
Channels: 2
Bits per sample: 24
Bitrate: 2909 kbps
Codec: FLAC
================================================================================



CD2 #01 - She's Not There
CD2 #02 - Flor d'Luna (Moonflower)
CD2 #03 - Soul Sacrifice / Head, Hands & Feet
CD2 #04 - El Morocco
CD2 #05 - Transcendance
CD2 #06 - Savor / Toussaint L'Overture

Analyzed: Santana / Moonflower
––––––––––––––––––––––––––––––––––––––––

DR Peak RMS Duration Track
––––––––––––––––––––––––––––––––––––––––
DR9 -0.20 dB -12.89 dB 4:08 01-She's Not There
DR10 -0.30 dB -13.60 dB 5:00 02-Flor d'Luna (Moonflower)
DR10 0.00 dB -12.48 dB 14:02 03-Soul Sacrifice / Head, Hands & Feet
DR10 -0.71 dB -13.20 dB 5:04 04-El Morocco
DR9 -0.91 dB -13.49 dB 5:12 05-Transcendance
DR10 -0.38 dB -13.09 dB 12:59 06-Savor / Toussaint L'Overture
––––––––––––––––––––––––––––––––––––––––

Number of tracks: 6
Official DR value: DR10

Samplerate: 96000 Hz
Channels: 2
Bits per sample: 24
Bitrate: 2997 kbps
Codec: FLAC
================================================================================


Thanks to the Original customer!