Shania Twain - Come On Over (1997/2017) [Official Digital Download 24-bit/96kHz]

Posted By: HDV
Shania Twain - Come On Over (1997/2017) [Official Digital Download 24-bit/96kHz]

Shania Twain - Come On Over (1997/2017)
FLAC (tracks) 24-bit/96 kHz | Time - 60:03 minutes | 1,31 GB
Studio Master, Official Digital Download | Artwork: Front cover

Following her smash hit "The Woman In Me" was no easy task for Shania Twain and husband/producer Mutt Lange. With "Come On Over" the sexy vixen of modern country has carved out a bigger niche for herself that is sure to please her growing throng of fans. With a huge helping of rock and roll added to her country trimmings, Twain proves her success has been no fluke. As a rule, she goes out of her way to break the traditional Nashville mold. Even her songwriting skills are at the forefront; Shania and Mutt co-wrote all the songs on this collection.

Shania Twain - Come On Over (1997/2017) [Official Digital Download 24-bit/96kHz]

Shania Twain's second record, The Woman in Me, became a blockbuster, appealing as much to a pop audience as it did to the country audience. Part of the reason for its success was how producer Robert John "Mutt" Lange – best-known for his work with Def Leppard, the Cars, and AC/DC – steered Twain toward the big choruses and instrumentation that always was a signature of his speciality, AOR radio. Come on Over, the sequel to The Woman in Me, continues that approach, breaking from contemporary country conventions in a number of ways. Not only does the music lean toward rock, but its 16 songs and, as the cover proudly claims, "Hour of Music," break from the country tradition of cheap, short albums of ten songs that last about a half-hour. Furthermore, all 16 songs and Lange-Twain originals and Shania's sleek, sexy photos suggest a New York fashion model, not a honky tonker. And there isn't any honky tonk here, which is just as well, since the fiddles are processed to sound like synthesizers and talk boxes never sound good on down-home, gritty rave-ups. No, Shania sticks to what she does best, which is countrified mainstream pop. Purists will complain that there's little country here, and there really isn't. However, what is here is professionally crafted country-pop – even the filler (which there is, unfortunately, too much of) sounds good – which is delivered with conviction, if not style, by Shania, and that is enough to make it a thoroughly successful follow-up to one of the most successful country albums by a female in history.


01 - Man! I Feel Like A Woman!
02 - I'm Holdin' On To Love (To Save My Life)
03 - Love Gets Me Every Time
04 - Don't Be Stupid (You Know I Love You)
05 - From This Moment On
06 - Come On Over
07 - When
08 - Whatever You Do! Don't!
09 - If You Wanna Touch Her, Ask!
10 - You're Still The One
11 - Honey, I'm Home
12 - That Don't Impress Me Much
13 - Black Eyes, Blue Tears
14 - I Won't Leave You Lonely
15 - Rock This Country!
16 - You've Got A Way

Digitally Remastered.

Analyzed: Shania Twain / Come On Over

DR Peak RMS Duration Track
DR9 -0.12 dB -10.97 dB 3:54 01-Man! I Feel Like A Woman!
DR9 -0.04 dB -10.79 dB 3:29 02-I'm Holdin' On To Love (To Save My Life)
DR9 0.00 dB -10.42 dB 3:32 03-Love Gets Me Every Time
DR8 0.00 dB -10.48 dB 3:35 04-Don't Be Stupid (You Know I Love You)
DR8 -0.26 dB -11.08 dB 4:41 05-From This Moment On
DR8 -0.30 dB -10.44 dB 2:54 06-Come On Over
DR7 -0.06 dB -9.25 dB 3:39 07-When
DR8 -0.37 dB -11.00 dB 3:49 08-Whatever You Do! Don't!
DR8 -0.04 dB -9.76 dB 4:04 09-If You Wanna Touch Her, Ask!
DR8 -0.20 dB -11.09 dB 3:32 10-You're Still The One
DR7 -0.21 dB -9.61 dB 3:35 11-Honey, I'm Home
DR9 0.00 dB -11.03 dB 3:39 12-That Don't Impress Me Much
DR7 -0.09 dB -9.59 dB 3:40 13-Black Eyes, Blue Tears
DR8 -0.36 dB -10.38 dB 4:12 14-I Won't Leave You Lonely
DR7 -0.05 dB -9.06 dB 4:22 15-Rock This Country!
DR8 0.00 dB -10.71 dB 3:26 16-You've Got A Way

Number of tracks: 16
Official DR value: DR8

Samplerate: 96000 Hz
Channels: 2
Bits per sample: 24
Bitrate: 2840 kbps
Codec: FLAC

Thanks to the Original customer!