Sleater-Kinney - Dig Me Out (1997/2014) [Official Digital Download 24bit/96kHz]

Posted By: HDV
Sleater-Kinney - Dig Me Out (1997/2014) [Official Digital Download 24bit/96kHz]

Sleater-Kinney - Dig Me Out (1997/2014)
FLAC (tracks) 24 bit/96 kHz | Time - 36:35 minutes | 925 MB
Studio Master, Official Digital Download | Artwork: Digital booklet

"Dig Me Out" is the third studio album by Sleater-Kinney, originally released on April 8, 1997 by Kill Rock Stars. The album was produced by John Goodmanson and recorded from December 1996 to January 1997 at John and Stu's Place in Seattle, Washington. Dig Me Out marked the debut of Janet Weiss, who became the band's longest-serving and last drummer. This reissue is newly-remastered. Dig Me Out is friendlier, more intimate, but isn't any less passionate.

Having reinvented the girl-punk wheel with Call the Doctor, Sleater-Kinney continues to expand the boundaries of the form with the stunning Dig Me Out. Leaner and more intricate than its predecessor, the record is remarkably confident and mature; instead of succumbing to the pressures of "next big thing" status, the trio finds vindication in all of their critical adulation – the vocals are even more ferocious, the melodies are even more infectious, and the ideals are even more passionate.

Tracklist:

01 - Dig Me Out
02 - One More Hour
03 - Turn It On
04 - The Drama You've Been Craving
05 - Heart Factory
06 - Words and Guitars
07 - It's Enough
08 - Little Babies
09 - Not What You Want
10 - Buy Her Candy
11 - Things You Say
12 - Dance Song '97
13 - Jenny

Producer and recording engineer: John Goodmanson.
Recorded December 1996 and January 1997 at John and Stu's Place in Seattle, Washington.

Musicians:
Carrie Brownstein - guitar, vocals
Corin Tucker - vocals, guitar
Janet Weiss - drums, percussion

Analyzed: Sleater-Kinney / Dig Me Out (Remastered)
––––––––––––––––––––––––––––––––––––––––

DR Peak RMS Duration Track
––––––––––––––––––––––––––––––––––––––––
DR7 -0.50 dB -8.41 dB 2:41 01-Dig Me Out
DR6 -0.46 dB -8.34 dB 3:20 02-One More Hour
DR7 -0.37 dB -8.61 dB 2:48 03-Turn It On
DR7 -0.53 dB -8.05 dB 2:08 04-The Drama You've Been Craving
DR6 -0.48 dB -8.81 dB 3:55 05-Heart Factory
DR7 -0.45 dB -8.83 dB 2:21 06-Words and Guitars
DR6 -0.46 dB -7.87 dB 1:47 07-It's Enough
DR6 -0.43 dB -8.55 dB 2:23 08-Little Babies
DR6 -0.38 dB -7.35 dB 3:17 09-Not What You Want
DR9 -0.60 dB -11.00 dB 2:03 10-Buy Her Candy
DR7 -0.51 dB -8.78 dB 2:57 11-Things You Say
DR7 -0.36 dB -9.01 dB 2:50 12-Dance Song '97
DR7 -0.34 dB -8.13 dB 4:05 13-Jenny
––––––––––––––––––––––––––––––––––––––––

Number of tracks: 13
Official DR value: DR7

Samplerate: 96000 Hz
Channels: 2
Bits per sample: 24
Bitrate: 3298 kbps
Codec: FLAC
================================================================================


Thanks to the Original customer!