Smokey Robinson - Being With You (1981/2016) [Official Digital Download 24/192]

Posted By: HDV
Smokey Robinson - Being With You (1981/2016) [Official Digital Download 24/192]

Smokey Robinson - Being With You (1981/2016)
FLAC (tracks) 24-bit/192 kHz | Time - 32:47 minutes | 1,34 GB
Studio Master, Official Digital Download | Artwork: Front cover

Smokey Robinson's most successful post-Miracles solo album, Being With You has sold over 900,000 copies and peaked at number 10 in the US, propelled by the million-selling hit single title track. Seeking a more contemporary, modern sound, Robinson sought out the hot producer of the day, George Tobin (Tiffany, Kim Carnes) to work his magic behind the board.

Back in the late '70s, Smokey Robinson made a great comeback with his 1979 hit "Cruisin'." With his broadened lyrical style and more knowing in his voice, the aesthetic powered such album classics as Where There's Smoke and Warm Thoughts. 1981's Being With You, in effect, ended the ride, but the hits more than continued. The single "Being With You" is a deft update of Robinson's '60s naïveté and is certainly a great pop record. The same can't be said for most of the tracks here. Handing over the production reigns to George Tobin, some of Robinson's quirks and musical trademarks are lost to polished and radio-friendly production. The songs aren't great here, either. The didactic and reggae-tinged "Food for Thought" just comes off silly. For the most part, Robinson doesn't offer much credible pure romance here. "As You Do," "Can't Fight Love," and "Who's Sad" all fail to make an impression. That's not true of the last track. The oddly affecting "I Hear the Children Crying" has him getting emotional, as his final note on the song seals the deal. Despite Robinson's paean to the "kids," his songwriting skills are a little off here. While a big hit is here and Robinson's in fine form, Being With You is a letdown in comparison to the two efforts before this.

Tracklist:

01 - Being With You
02 - Food For Thought
03 - If You Wanna Make Love (Come 'Round Here)
04 - Who's Sad
05 - Can't Fight Love
06 - You Are Forever
07 - As You Do
08 - I Hear The Children Singing

Analyzed: Smokey Robinson / Being With You
––––––––––––––––––––––––––––––––––––––––

DR Peak RMS Duration Track
––––––––––––––––––––––––––––––––––––––––
DR10 0.00 dB -11.91 dB 4:07 01-Being With You
DR11 0.00 dB -12.74 dB 4:10 02-Food For Thought
DR10 0.00 dB -13.18 dB 3:31 03-If You Wanna Make Love (Come 'Round Here)
DR10 0.00 dB -12.78 dB 3:42 04-Who's Sad
DR11 0.00 dB -12.57 dB 5:57 05-Can't Fight Love
DR12 0.00 dB -14.03 dB 4:27 06-You Are Forever
DR10 0.00 dB -11.95 dB 3:13 07-As You Do
DR13 -0.10 dB -15.33 dB 3:41 08-I Hear The Children Singing
––––––––––––––––––––––––––––––––––––––––

Number of tracks: 8
Official DR value: DR11

Samplerate: 192000 Hz
Channels: 2
Bits per sample: 24
Bitrate: 5324 kbps
Codec: FLAC
================================================================================


Thanks to the Original customer!

.