Smokey Robinson & The Miracles - The Season For Miracles (1970/2015) [Official Digital Download 24/192]

Posted By: HDV
Smokey Robinson & The Miracles - The Season For Miracles (1970/2015) [Official Digital Download 24/192]

Smokey Robinson & The Miracles - The Season For Miracles (1970/2015)
FLAC (tracks) 24-bit/192 kHz | Time - 39:12 minutes | 1,71 GB
Studio Master, Official Digital Download | Artwork: Front cover

This 1970 holiday release is the second Christmas album from the Miracles, following a successful, highly acclaimed 1963 outing. The Season For Miracles features traditional numbers, classic favourites and several originals, including two songs by Stevie Wonder. The Temptations join the Miracles on Mel Tormé's The Christmas Song.

Tracklist:

01 - Deck The Halls / Bring A Torch, Jeannette, Isabella
02 - God Rest Ye Merry Gentlemen
03 - I Can Tell When Christmas Is Near
04 - I Believe In Christmas Eve
05 - The Christmas Song (Merry Christmas To You)
06 - Jingle Bells
07 - It's Christmas Time
08 - Go Tell It On The Mountain
09 - Away In A Manger/ Coventry Carol
10 - Peace On Earth (Good Will Toward Men)
11 - The Day That Love Began
12 - A Child Is Waiting

Analyzed: Smokey Robinson & The Miracles / The Season For Miracles
––––––––––––––––––––––––––––––––––––––––

DR Peak RMS Duration Track
––––––––––––––––––––––––––––––––––––––––
DR10 0.00 dB -12.52 dB 4:09 01-Deck The Halls / Bring A Torch, Jeannette, Isabella
DR11 0.00 dB -12.89 dB 3:13 02-God Rest Ye Merry Gentlemen
DR11 0.00 dB -12.68 dB 3:08 03-I Can Tell When Christmas Is Near
DR11 0.00 dB -12.14 dB 2:10 04-I Believe In Christmas Eve
DR10 0.00 dB -12.14 dB 3:54 05-The Christmas Song (Merry Christmas To You)
DR10 0.00 dB -11.23 dB 2:53 06-Jingle Bells
DR10 0.00 dB -10.96 dB 3:33 07-It's Christmas Time
DR10 0.00 dB -11.91 dB 3:51 08-Go Tell It On The Mountain
DR9 0.00 dB -11.17 dB 2:30 09-Away In A Manger/ Coventry Carol
DR10 0.00 dB -12.85 dB 3:11 10-Peace On Earth (Good Will Toward Men)
DR10 0.00 dB -12.48 dB 3:58 11-The Day That Love Began
DR10 0.00 dB -11.66 dB 2:44 12-A Child Is Waiting
––––––––––––––––––––––––––––––––––––––––

Number of tracks: 12
Official DR value: DR10

Samplerate: 192000 Hz
Channels: 2
Bits per sample: 24
Bitrate: 6071 kbps
Codec: FLAC
================================================================================


Thanks to the Original customer!