Sonic Youth - Washing Machine (1995/2016) [Official Digital Download 24/192]

Posted By: HDV
Sonic Youth - Washing Machine (1995/2016) [Official Digital Download 24/192]

Sonic Youth - Washing Machine (1995/2016)
FLAC (tracks) 24-bit/192 kHz | Time - 68:17 minutes | 2,67 GB
Studio Master, Official Digital Download | Artwork: Front cover

Sonic Youth's ninth album Washing Machine is the first record to almost exclusively feature Kim on guitar rather than bass, and contains some of their lengthiest material since "Goo" and "Daydream Nation", including the epic "The Diamond Sea" which drifts onward for an unprecedented 20 minutes, still the longest track on any SY album (excluding the SYR releases). Incidentally, "The Diamond Sea" would prove to be one of the band's most popular songs, and it along with SY's headlining spot on the summer Lollapalooza tour would introduce legions of new fans to their music.

After the regressive, low-key Experimental Jet Set, Trash & No Star, Sonic Youth appeared to be floundering somewhat, but Washing Machine erased any notion that the band had run out of things to say. Easily their most adventurous, challenging, and best record since Daydream Nation, the album finds Sonic Youth returning to the fearless exploration of their SST records, but the group has found a way to work that into tighter song structures. Not only are the songs more immediate than most of the material on their earlier records, the sound here is warm and open, making Washing Machine their most mature and welcoming record to date. It's not a commercial record, nor is it a pop record, but Washing Machine encompasses everything that made Sonic Youth innovators, and shows that they can continue to grow, finding new paths inside their signature sound.

Tracklist:

01 - Becuz
02 - Junkie's Promise
03 - Saucer-Like
04 - Washing Machine
05 - Unwind
06 - Little Trouble Girl
07 - No Queen Blues
08 - Panty Lies
09 - Becuz Coda
10 - Skip Tracer
11 - The Diamond Sea

Analyzed: Sonic Youth / Washing Machine
––––––––––––––––––––––––––––––––––––––––

DR Peak RMS Duration Track
––––––––––––––––––––––––––––––––––––––––
DR9 0.00 dB -9.66 dB 4:43 01-Becuz
DR9 0.00 dB -9.78 dB 4:02 02-Junkie's Promise
DR9 0.00 dB -9.90 dB 4:25 03-Saucer-Like
DR9 0.00 dB -10.94 dB 9:33 04-Washing Machine
DR9 0.00 dB -11.31 dB 6:02 05-Unwind
DR9 -0.02 dB -11.11 dB 4:29 06-Little Trouble Girl
DR8 0.00 dB -9.62 dB 4:35 07-No Queen Blues
DR9 0.00 dB -10.54 dB 4:15 08-Panty Lies
DR11 -0.13 dB -18.32 dB 2:49 09-Becuz Coda
DR9 0.00 dB -9.40 dB 3:48 10-Skip Tracer
DR7 0.00 dB -9.36 dB 19:36 11-The Diamond Sea
––––––––––––––––––––––––––––––––––––––––

Number of tracks: 11
Official DR value: DR9

Samplerate: 192000 Hz
Channels: 2
Bits per sample: 24
Bitrate: 5474 kbps
Codec: FLAC
================================================================================


Thanks to the Original customer!

Sonic Youth - Goo (1990/2016)
Sonic Youth - Dirty (1992/2016)