Stan Getz & Charlie Byrd - Jazz Samba (1962) [Analogue Productions 2013] PS3 ISO

Posted By: HDAtall
Stan Getz & Charlie Byrd - Jazz Samba (1962) [Analogue Productions 2013] PS3 ISO

Stan Getz & Charlie Byrd - Jazz Samba (1962) [APO Remaster 2013]
PS3 Rip | SACD ISO | DSD64 2.0 > 1-bit/2.8224 MHz | 33:11 minutes | Basic Covers included | 1007 MB

Credited for inspiring the bossa nova of the early 1960s, this recording by Stan Getz and Charlie Byrd was the first in a long series of South American-influenced American music. The album features two tracks by Brazilian composer Antonio Carlos Jobim, works by other Brazilian composers, and compositions by famed guitarist Charlie Byrd. Jazz Samba won the 1963 Grammy for Best Jazz Performance.

Partly because of its Brazilian collaborators and partly because of "The Girl From Ipanema," Getz/Gilberto is nearly always acknowledged as the Stan Getz bossa nova LP. But Jazz Samba is just as crucial and groundbreaking; after all, it came first, and in fact was the first full-fledged bossa nova album ever recorded by American jazz musicians. And it was just as commercially successful, topping the LP charts and producing its own pop chart hit single in "Desafinado." It was the true beginning of the bossa nova craze, and introduced several standards of the genre (including Ary Barroso's "Bahia" and Antonio Carlos Jobim's "Desafinado" and "Samba de Uma Nota Só" [aka "One Note Samba"]). But above all, Jazz Samba stands on its own artistic merit as a shimmering, graceful collection that's as subtly advanced – in harmony and rhythm – as it is beautiful. Getz and his co-billed partner, guitarist Charlie Byrd – who was actually responsible for bringing bossa nova records to the U.S. and introducing Getz to the style – have the perfect touch for bossa nova's delicate, airy texture. For his part, Byrd was one of the first American musicians to master bossa nova's difficult, bubbling syncopations, and his solos are light and lilting. Meanwhile, Getz's playing is superb, simultaneously offering a warm, full tone and a cool control of dynamics; plus, Byrd's gently off-kilter harmonies seem to stimulate Getz's melodic inventiveness even more than usual. But beyond technique, Getz intuitively understands the romanticism and the undercurrent of melancholy inherent in the music, and that's what really made Jazz Samba such a revelatory classic. Absolutely essential for any jazz collection.

Tracklist:

01. Desafinado
02. Samba Dees Days
03. O Pato
04. Samba Triste
05. Samba de Uma Nota So
06. E Luxo So
07. Behia (aka "Baia")

Produced by Creed Taylor. Engineered by Ed Green.
Recorded on February 13, 1962 at the All Souls Unitarian Church, Washington, DC.
Mastered by George Marino at Sterling Sound, New York.

Personnel:
Stan Getz - Tenor Saxophone
Charlie Byrd - Guitar
Gene Byrd - Guitar, Bass
Keter Betts - Bass
Buddy Deppenschmidt - Drums
Bill Reinchenbach - Percussion

foobar2000 1.3.16 / Dynamic Range Meter 1.1.1

––––––––––––––––––––––––––––––––––––––––
Analyzed: Stan Getz and Charlie Byrd / Jazz Samba
––––––––––––––––––––––––––––––––––––––––

DR Peak RMS Duration Track
––––––––––––––––––––––––––––––––––––––––
DR13 -6.10 dB -23.08 dB 5:49 01-Desafinado
DR12 -7.01 dB -22.07 dB 3:33 02-Samba Dees Days
DR12 -7.59 dB -23.85 dB 2:29 03-O Pato
DR12 -7.50 dB -24.04 dB 4:44 04-Samba Triste
DR13 -7.28 dB -24.09 dB 6:09 05-Samba de Uma Nota So
DR12 -8.08 dB -23.20 dB 3:40 06-E Luxo So
DR12 -7.19 dB -24.22 dB 6:46 07-Behia (aka "Baia")
––––––––––––––––––––––––––––––––––––––––

Number of tracks: 7
Official DR value: DR12

Samplerate: 2822400 Hz / PCM Samplerate: 88200 Hz
Channels: 2
Bits per sample: 1
Bitrate: 5645 kbps
Codec: DSD64


Uncompressed SACD ISO size > 1,87 GB
>