Leopold Stokowski - Symphony of the Air / Rhapsodies (2005) {Hybrid-SACDISO & HiRes FLAC}

Posted By: luckburz
Leopold Stokowski - Symphony of the Air / Rhapsodies (2005) {Hybrid-SACDISO & HiRes FLAC}

Leopold Stokowski - Symphony of the Air / Rhapsodies
SACD ISO (2.0/MCH): 3,07 GB | 24B/88,2kHz Stereo FLAC: 1,36 GB | NO Artwork
Label/Cat#: RCA Red Seal "Living Stereo" # 82876-67903-2 | Country/Year: US 2005
Genre: Classical | Style: Romantic, Early 20th Century | 5% Recovery Info

MD5 [X] CUE [ ] LOG [X] INFO TEXT [X] ARTWORK [ ]

my rip [ ] not my rip [X]


Leopold Stokowski - [2005] Rhapsodies [2.0] (SACD[PS3] - 24bit88.2kHz)
======================================================================================
SACD[PS3]ISO to flac conversion using SACD_Conversion_script version 0.5

Track list
–––––

01 Hungarian Rhapsody No. 2 In C-Sharp Minor 08:48.67
02 Roumanian Rhapsody No. 1 In A, Op. 11 11:38.99
03 The Moldau (Vltava) 12:27.76
04 The Bartered Bride - Overture 07:12.52
05 Tristan Und Isolde - Prelude To Act III 10:19.07
06 Tannhaeuser - Overture And Venusberg Music 25:09.04

Technical Details
––––––––-

01) ISO image created using sacd-ripper for PS3

02) Edited Master Dff file extracted using SACD_Extract

03) Edited Master Dff file analysed using foobar + foo_input_sacd and DR Meter plugins to find peak track(s)

04) Dff files for loudest tracks extracted from the ISO using SACD_Extract and converted using Weiss Saracon 1.61-27 at 24bit/88.2kHz with -6.00dB gain

05) Non-clipping gain calculated using SoX

06) Final pass conversion using Weiss Saracon 1.61-27 at 24bit/88.2kHz with 5.50dB gain as calculated above

07) Final pass PCM file split into individual tracks (discarding first 41 samples) using track lengths calculated from cue file generated by SACD_Extract

08) Spikes at beginning of first/end of last tracks eliminated by deleting 24 samples and replacing with the adjacent 24 samples using SoX to give the correct track length

09) Finalised tracks converted to flac [level 8] and tagged using tag.exe

10) Dynamic Range measured using Foobar DR Meter plugin

foobar2000 1.1.11 / Dynamic Range Meter 1.1.1
log date: 2016-10-20 20:26:54

––––––––––––––––––––––––––––––––––––––––
Analyzed: Leopold Stokowski / Rhapsodies
––––––––––––––––––––––––––––––––––––––––

DR Peak RMS Duration Track
––––––––––––––––––––––––––––––––––––––––
DR11 -0.13 dB -16.50 dB 8:49 01-Hungarian Rhapsody No. 2 In C-Sharp Minor
DR10 -0.19 dB -14.20 dB 11:39 02-Roumanian Rhapsody No. 1 In A, Op. 11
DR9 -0.01 dB -14.17 dB 12:28 03-The Moldau (Vltava)
DR10 -1.23 dB -16.69 dB 7:13 04-The Bartered Bride - Overture
DR12 -6.87 dB -25.40 dB 10:19 05-Tristan Und Isolde - Prelude To Act III
DR12 -1.50 dB -19.07 dB 25:09 06-Tannhaeuser - Overture And Venusberg Music
––––––––––––––––––––––––––––––––––––––––

Number of tracks: 6
Official DR value: DR11

Samplerate: 88200 Hz
Channels: 2
Bits per sample: 24
Bitrate: 2570 kbps
Codec: FLAC
================================================================================



SACD Info:

Leopold Stokowski - Symphony of the Air / Rhapsodies

Label: RCA Red Seal
Series: Living Stereo
Catalog#: 82876-67903-2
Format: Hybrid-SACD, Album, Stereo, Multichannel
Country: US
Released: 2005
Genre: Classical

Tracklist:

01. Franz Listz - Hungarian Rhapsody No. 2 in C-Sharp Minor 08:46
02. Georges Enesco - Roumanian Rhapsody No. 1 in A, Op. 11 11:38
03. Bedrich Smetana - The Moldau (Vltava) 12:27
04. Bedrich Smetana - The Bartered Bride - Overture 07:12
05. Richard Wagner - Tristan und Isolde - Prelude to Act III 10:19
06. Richard Wagner - Tannhaeuser - Overture and Venusberg Music 25:09

"This sacd is truly wonderful. Under the leadmanship of Stokowsky all music becomes something extraordinary. Start with the majestic notes of Liszt's Hungarian rhapsody & end with Wagner. And don't forget smetana's moldau! Then I switched to the 3-channel mix on the SACD. The orchestra became much wider & deeper on the soundstage, with the flute solo in the Moldau front & center with greatest clarity & presence…" ~audaud.com

"Leopold Stokowski's collection of Rhapsodies are painted broadly but with his characteristic fine control, & in sound that is larger than life." ~Kalman Rubinson

With kind permission by ManWhoCan. Thanks my friend!

________________

ISO PART

=1= | =2= | =3=
=4= | =5=

FLAC PART

=1= | =2= | =3=

________________