Subcategories

Stone Foundation - Live Rituals (2017) [Official Digital Download]

Posted By: HDV
Stone Foundation - Live Rituals (2017) [Official Digital Download]

Stone Foundation - Live Rituals (2017)
FLAC (tracks) 24-bit/44,1 kHz | Time - 66:53 minutes | 805 MB
Studio Master, Official Digital Download | Artwork: Front cover


Following the stunning success of the Top 25 album Street Rituals earlier this year, modern soul heroes Stone Foundation are back with their first official live album. Live Rituals was recorded at the band’s sold out Islington Assembly Hall show in May 2017. Features special guest appearances from Paul Weller on “Your Balloon is Rising” and a cover of Marvin Gaye’s soul classic “What’s Going On” as well as appearances from Dr. Robert (of The Blow Monkeys) on “A Love Uprising” and Danny Champ (of Danny & The Champions of the World) on “Pushing Your Love”.

Tracklist:

01 - Back In The Game
02 - Open Your Heart To The World
03 - Street Rituals
04 - The Limit Of A Man
05 - Strange People
06 - Your Balloon Is Rising
07 - The Colour Of…
08 - A Love Uprising
09 - These Life Stories
10 - Pushing Your Love
11 - What's Going On
12 - Simplify The Situation

Analyzed: Stone Foundation / Live Rituals
––––––––––––––––––––––––––––––––––––––––

DR Peak RMS Duration Track
––––––––––––––––––––––––––––––––––––––––
DR8 -0.20 dB -9.36 dB 4:57 01-Back In The Game
DR8 -0.20 dB -9.42 dB 4:13 02-Open Your Heart To The World
DR9 -0.20 dB -11.95 dB 5:11 03-Street Rituals
DR8 -0.20 dB -8.74 dB 6:02 04-The Limit Of A Man
DR8 -0.20 dB -9.55 dB 4:45 05-Strange People
DR8 -0.20 dB -10.43 dB 5:27 06-Your Balloon Is Rising
DR8 -0.20 dB -9.59 dB 6:31 07-The Colour Of…
DR8 -0.20 dB -9.41 dB 6:20 08-A Love Uprising
DR9 -0.20 dB -10.87 dB 4:52 09-These Life Stories
DR9 -0.20 dB -12.29 dB 4:41 10-Pushing Your Love
DR8 -0.20 dB -9.29 dB 5:58 11-What's Going On
DR8 -0.20 dB -10.00 dB 7:57 12-Simplify The Situation
––––––––––––––––––––––––––––––––––––––––

Number of tracks: 12
Official DR value: DR8

Samplerate: 44100 Hz
Channels: 2
Bits per sample: 24
Bitrate: 1640 kbps
Codec: FLAC
================================================================================


Thanks to the Original customer!