Sunny and The Sunliners - The Missing Link (2017) [Official Digital Download]

Posted By: HDV
Sunny and The Sunliners - The Missing Link (2017) [Official Digital Download]

Sunny & The Sunliners - The Missing Link (2017)
FLAC (tracks) 24-bit/44,1 kHz | Time - 28:20 minutes | 317 MB
Studio Master, Official Digital Download | Artwork: Front cover

Sunny & The Sunliners were a unique pop music group in 1960s Texas with a style that blended R&B, tejano, blues and mariachi. All but one of their 22 members were Chicano, and the band represented a distinctive crossover moment for Mexican Americans in popular music with a string of hit singles in 1962 and 1963. This collection from Big Crown Records revisits some of their lesser known songs.

Tracklist:

01 - Soul Pride
02 - Duffy
03 - Cissy Strut
04 - Rosita Bonita
05 - Madrid
06 - Boo Boo
07 - Lo Pollera Colorada
08 - Pressure Cooker
09 - Uno
10 - La Pecosita

Analyzed: Sunny & The Sunliners / The Missing Link
––––––––––––––––––––––––––––––––––––––––

DR Peak RMS Duration Track
––––––––––––––––––––––––––––––––––––––––
DR11 -0.10 dB -13.00 dB 2:41 01-Soul Pride
DR13 -0.10 dB -17.11 dB 4:01 02-Duffy
DR11 -0.10 dB -12.85 dB 2:44 03-Cissy Strut
DR10 -0.10 dB -12.68 dB 2:31 04-Rosita Bonita
DR11 -0.10 dB -13.13 dB 2:42 05-Madrid
DR11 -0.10 dB -12.67 dB 3:36 06-Boo Boo
DR11 -0.10 dB -12.60 dB 2:14 07-Lo Pollera Colorada
DR13 -0.10 dB -15.43 dB 3:04 08-Pressure Cooker
DR10 -0.10 dB -11.80 dB 2:36 09-Uno
DR11 -0.10 dB -13.04 dB 2:10 10-La Pecosita
––––––––––––––––––––––––––––––––––––––––

Number of tracks: 10
Official DR value: DR11

Samplerate: 44100 Hz
Channels: 2
Bits per sample: 24
Bitrate: 1463 kbps
Codec: FLAC
================================================================================


Thanks to the Original customer!