Supersonic Blues Machine - West Of Flushing, South Of Frisco (2016) [Official Digital Download 24-bit/96kHz]

Posted By: HDV
Supersonic Blues Machine - West Of Flushing, South Of Frisco (2016) [Official Digital Download 24-bit/96kHz]

Supersonic Blues Machine - West Of Flushing, South Of Frisco (2016)
FLAC (tracks) 24-bit/96 kHz | Time - 55:42 minutes | 1,34 GB
Studio Master, Official Digital Download | Artwork: Front cover

Debut 2016 album from the US power-blues trio! Cameos by Billy F Gibbons (ZZ Top), Walter Trout, Warren Haynes, Robben Ford and others. The Supersonic Blues Machine line up is magic merge drumming legend Kenny Aronoff, bassist/producer Fabrizio Grossi & award winning guitarist/lead singer Lance Lopez. "West of Flushing, South of Frisco" is a sprawling and emotional journey.


The three members of Supersonic Blues Machine – drummer Kenny Aronoff, bassist Fabrizio Grossi, and singer/guitarist Lance Lopez – share a love of blues that's nearly as large as their love of classic rock. This means their 2016 debut, West of Flushing South of Frisco, is by no means traditional blues but it is traditional blues-rock, goosed by bits of funk and soul, all wrapped up in a muscular arena rock gloss. Songs are secondary here: it's all about the players, including a long, impressive list of guests, highlighted by Billy Gibbons, Warren Haynes, Chris Duarte, and Robben Ford. This very list of luminaries reveals how West of Flushing South of Frisco is targeted at guitarists who love to hear other guitarists play – listeners who love to hear and feel monster tone. If the songs never really stick – they all feel like vehicles for vamps and solos – that doesn't matter much because each track delivers the kind of oversized blooze jams so many guitarists love to play and, occasionally, hear.

Tracklist:

01 - Miracle Man
02 - I Ain't Fallin' Again
03 - Running Whiskey (feat. Billy F. Gibbons)
04 - Remedy (feat. Warren Haynes)
05 - Bone Bucket Blues
06 - Let It Be
07 - That's My Way (feat. Chris Duarte)
08 - Ain't No Love (In The Heart Of The City)
09 - Nightmares And Dreams (feat. Eric Gales)
10 - Can't Take It No More (feat. Walter Trout)
11 - Whiskey Time (Running Whiskey's Extended Ending)
12 - Let's Call It A Day (feat. Robben Ford)
13 - Watchagonnado

Analyzed: Supersonic Blues Machine / West Of Flushing, South Of Frisco
––––––––––––––––––––––––––––––––––––––––

DR Peak RMS Duration Track
––––––––––––––––––––––––––––––––––––––––
DR5 -1.70 dB -7.92 dB 4:23 01-Miracle Man
DR5 -1.70 dB -7.79 dB 3:30 02-I Ain't Fallin' Again
DR5 -1.70 dB -6.98 dB 2:40 03-Running Whiskey (feat. Billy F. Gibbons)
DR5 -1.70 dB -7.82 dB 5:43 04-Remedy (feat. Warren Haynes)
DR5 -1.70 dB -8.15 dB 3:13 05-Bone Bucket Blues
DR5 -1.70 dB -8.30 dB 5:26 06-Let It Be
DR5 -1.70 dB -8.30 dB 4:52 07-That's My Way (feat. Chris Duarte)
DR6 -1.70 dB -9.47 dB 5:26 08-Ain't No Love (In The Heart Of The City)
DR5 -1.70 dB -7.55 dB 4:44 09-Nightmares And Dreams (feat. Eric Gales)
DR4 -1.70 dB -7.13 dB 6:12 10-Can't Take It No More (feat. Walter Trout)
DR4 -1.70 dB -7.37 dB 2:14 11-Whiskey Time (Running Whiskey's Extended Ending)
DR5 -1.50 dB -9.03 dB 3:32 12-Let's Call It A Day (feat. Robben Ford)
DR6 -1.70 dB -8.67 dB 3:49 13-Watchagonnado
––––––––––––––––––––––––––––––––––––––––

Number of tracks: 13
Official DR value: DR5

Samplerate: 96000 Hz
Channels: 2
Bits per sample: 24
Bitrate: 3304 kbps
Codec: FLAC
================================================================================


Thanks to the Original customer!