Teddy Wilson Trio - Revisiting The Goodman Years (1982/2017) [DSD128 + Hi-Res FLAC]

Posted By: HDV
Teddy Wilson Trio - Revisiting The Goodman Years (1982/2017) [DSD128 + Hi-Res FLAC]

Teddy Wilson Trio - Revisiting The Goodman Years (1982/2017)
DSD128 (.dsf) 1 bit/5,6 MHz | Time - 40:42 minutes | 1,84 GB
FLAC (tracks) 24-bit/88,2 kHz | Time - 40:42 minutes | 752 MB
Studio Master, Official Digital Download | Artwork: Digital booklet

Teddy Wilson bears the proud title of jazz musician pure and simple and that is why the music in this record is of such high standard. By the time he joined Benny Goodman (at age 23 in 1935) Wilson had mastered aesthetic perfection and has allowed pure music to speak for him ever since.

"‘whatever elegance means, Teddy Wilson is it!" these words by Benny Goodman and the Jazz text books that have typecast his individuality with words like ‘urbane’ ‘polished’, ‘poised’ or ‘impeccable’ designate his royal place in the hierarchy of great jazz pianists. Teddy Wilson’s originality has surmounted every trend, both as soloist and as a catalyst for all the greatest musicians of this era. Wilson is elegant, he is never bland. His subtlety never neglects intensity. And his sense of poise never interferes with his sound of surprise. Teddy Wilson – like very few others in jazz – is most of all, a pure musician.

Teddy Wilson, age 67 at the time of these trio sides, was predictably excellent throughout his long career, never recording a dull or indifferent record. In fact, more than just about any jazz musician, his style remained immune to outside influences ever since the swing era, so do not look for any McCoy Tyner or Bill Evans chord voicings on this LP. Wilson, along with bassist Jesper Lundgaard and drummer Ed Thigpen, plays a dozen songs that he had performed with Benny Goodman during the 1935-38 period. Fun and swinging music.


01 - 'S Wonderful!
02 - Someday Sweetheart
03 - The Sheik of Araby
04 - More Than You Know
05 - Nobody's Sweetheart
06 - Rose Room
07 - China Boy
08 - Sweet Sue
09 - Moonglow
10 - Exactly Like You
11 - Sweet Lorraine
12 - Whispering

Produced by Karl Emil Knudsen. Engineered by Hans Nielsen.
Recorded on June 15, 1980 in Copenhagen, Denmark.
2xHD was created by producer/studio owner André Perry and audiophile sound engineer René Laflamme.

Teddy Wilson - piano
Jesper Lundgard - bass
Ed Thigpen - drums

About 2xHD Fusion process:
In the constant evolution of its proprietary mastering process, 2xHD has progressed to a new phase called 2xHD FUSION, integrating the finest analog, with state-of-the-art digital technology.

The mastering chain consists of a selection of high-end vacuum tube equipment. For the recordings on this album, the original ¼” 15 ips CCIR master tapes were played on a Nagra-T tape recorder, modified with high-end tube playback electronics, wired from the playback head directly to a Telefunken EF806 tube, using OCC silver cable. The Nagra T, with its four direct drive motors, two pinch rollers and a tape tension head, has one of the best transports ever made. A custom-built carbon fiber head block and a head damping electronic system permit 2xHD FUSION to obtain a better resolution and 3D imaging.

The resulting signal is then transformed into high resolution formats by recording it in DSD 11.2 kHz using a Merging Technologies’ Horus A to D converter. All analog and digital cables that are used are state of the art. The 2xHD FUSION mastering system is powered by a super capacitor power supply, using a new technology that lowers the digital noise found in the lowest level of the spectrum. A vacuum tube NAGRA HDdac (DSD) is used as a reference digital playback converter in order to A and B with the original analog master tape, permitting the fusion of the warmth of analog with the refinement of digital.
Analyzed: Teddy Wilson Trio / Revisiting The Goodman Years

DR Peak RMS Duration Track
DR12 -7.13 dB -21.57 dB 3:06 01-'S Wonderful!
DR12 -6.02 dB -22.04 dB 3:05 02-Someday Sweetheart
DR13 -6.94 dB -22.77 dB 3:21 03-The Sheik of Araby
DR13 -7.02 dB -23.95 dB 3:03 04-More Than You Know
DR13 -7.20 dB -23.22 dB 3:44 05-Nobody's Sweetheart
DR14 -7.66 dB -24.78 dB 4:13 06-Rose Room
DR12 -6.98 dB -23.53 dB 4:20 07-China Boy
DR13 -7.19 dB -22.99 dB 2:26 08-Sweet Sue
DR13 -8.40 dB -26.28 dB 2:47 09-Moonglow
DR13 -6.02 dB -23.97 dB 3:21 10-Exactly Like You
DR14 -8.67 dB -25.77 dB 3:42 11-Sweet Lorraine
DR13 -7.59 dB -23.67 dB 3:32 12-Whispering

Number of tracks: 12
Official DR value: DR13

Samplerate: 5644800 Hz / PCM Samplerate: 88200 Hz
Channels: 2
Bits per sample: 1
Bitrate: 11290 kbps
Codec: DSD128

Thanks to the Original customer!

Teddy Wilson - St. Louis Blues (2017)