The Pleyel Ensemble - Cooke: Chamber Piano Works (2019) [Official Digital Download 24/96]

Posted By: El Misha
The Pleyel Ensemble - Cooke: Chamber Piano Works (2019) [Official Digital Download 24/96]

The Pleyel Ensemble - Cooke: Chamber Piano Works (2019)
FLAC (tracks) 24-bit/96 kHz | Time - 01:18:59 | 2.56 GB
Studio Master, Official Digital Download | Artwork: Front cover+digital booklet

The Pleyels bring together some of the UK’s leading instrumentalists who share a passion for chamber music past and present.



Tracklist:

01. Piano Trio: I. Poco lento - Allegro
02. Piano Trio: II. Andante con moto
03. Piano Trio: III. Allegro molto - Presto - Lento - Prestissimo
04. Piano Quartet: I. Allegro ma non troppo
05. Piano Quartet: II. Scherzo. Allegro vivace
06. Piano Quartet: III. Lento
07. Piano Quartet: IV. Rondo. Allegro - Più mosso
08. Piano Quintet: I. Andante - Allegro
09. Piano Quintet: II. Scherzo. Molto vivace
10. Piano Quintet: III. Andante
11. Piano Quintet: IV. Allegro vivace - Più mosso

foobar2000 1.3.9 / Dynamic Range Meter 1.1.1
log date: 2019-09-04 06:18:50

––––––––––––––––––––––––––––––––––––––––
Analyzed: The Pleyel Ensemble / Cooke: Chamber Piano Works
––––––––––––––––––––––––––––––––––––––––

DR Peak RMS Duration Track
––––––––––––––––––––––––––––––––––––––––
DR14 -1.00 dB -20.14 dB 8:47 01-Piano Trio: I. Poco lento - Allegro
DR14 -2.34 dB -22.08 dB 9:05 02-Piano Trio: II. Andante con moto
DR13 -0.64 dB -18.62 dB 7:04 03-Piano Trio: III. Allegro molto - Presto - Lento - Prestissimo
DR14 -1.57 dB -20.37 dB 8:58 04-Piano Quartet: I. Allegro ma non troppo
DR13 -2.02 dB -18.90 dB 5:13 05-Piano Quartet: II. Scherzo. Allegro vivace
DR15 -2.93 dB -24.22 dB 8:13 06-Piano Quartet: III. Lento
DR15 0.00 dB -19.33 dB 6:40 07-Piano Quartet: IV. Rondo. Allegro - Più mosso
DR14 0.00 dB -20.15 dB 8:16 08-Piano Quintet: I. Andante - Allegro
DR14 -0.39 dB -20.02 dB 3:44 09-Piano Quintet: II. Scherzo. Molto vivace
DR15 -1.84 dB -23.66 dB 6:38 10-Piano Quintet: III. Andante
DR14 -1.19 dB -20.19 dB 6:55 11-Piano Quintet: IV. Allegro vivace - Più mosso
––––––––––––––––––––––––––––––––––––––––

Number of tracks: 11
Official DR value: DR14

Samplerate: 96000 Hz
Channels: 2
Bits per sample: 24
Bitrate: 4616 kbps
Codec: FLAC
================================================================================



Thanks to the Original customer!