The Allman Brothers Band - Beacon Theatre, New York, October 24 (2014) [Official Digital Download] RE-UP

Posted By: HDV
The Allman Brothers Band - Beacon Theatre, New York, October 24 (2014) [Official Digital Download] RE-UP

The Allman Brothers Band - Beacon Theatre, New York, October 24 (2014)
FLAC (tracks) 24-bit/96 kHz | Time - 153:23 minutes | 1,88 GB
Studio Master, Official Digital Download | Artwork: PDF Sleeves

Well, this actually may be one of the best shows in quite a while. The Allman Brothers Band comes out and absolutely kills this Friday night set. The highlight of the show is a full rendition of "Will The Circle Be Unbroken?" in the middle of an epic Whipping Post jam encore. But really, this entire show was great. You shouldn't still be reading this - you should already be listening to the show.

The Allman Brothers Band returned to the Beacon Theatre for the third show of their six-night farewell run yesterday. As was the case on Wednesday, guitarist Derek Trucks once again took up Duane Allman’s long-lost (and recently rediscovered) 1957 Goldtop Les Paul for a number of tunes.
Highlights from the show included emotional first set takes on “No One to Run With” and “Soulshine,” marking the first time that the Warren Haynes-penned tune has appeared during the farewell run. Haynes also took up vocals for “Blue Sky” during the second set, which also featured extended takes on “Rocking Horse” and “You Don’t Love Me,” with the latter playing into a rare “Soul Serenade” to close things out. The farewell run’s “Will The Circle Be Unbroken?” theme then continued as the band slipped the gospel classic into this week’s first “Whipping Post” for the night’s finale.

Tracklist:

01 - Hot 'Lanta
02 - No One To Run With
03 - Leave My Blues At Home
04 - Worried Down With The Blues
05 - Soulshine
06 - True Gravity
07 - Dreams
08 - Black Hearted Woman
09 - Done Somebody Wrong
10 - Come And Go Blues
11 - Rockin' Horse
12 - Trouble No More
13 - Midnight Rider
14 - Blue Sky
15 - You Don't Love Me
16 - Crowd noise
17 - Whipping Post
18 - Will The Circle Be Unbroken?
19 - Whipping Post [Reprise]

Analyzed: The Allman Brothers Band / 2014-10-24 - Beacon Theatre, New York, NY
––––––––––––––––––––––––––––––––––––––––

DR Peak RMS Duration Track
––––––––––––––––––––––––––––––––––––––––
DR9 -0.34 dB -11.56 dB 5:44 01-Hot 'Lanta
DR8 -0.34 dB -9.94 dB 5:59 02-No One To Run With
DR8 -0.34 dB -10.03 dB 6:35 03-Leave My Blues At Home
DR9 -0.34 dB -12.45 dB 8:12 04-Worried Down With The Blues
DR9 -0.34 dB -11.33 dB 7:50 05-Soulshine
DR9 -0.34 dB -11.18 dB 10:13 06-True Gravity
DR9 -0.34 dB -11.86 dB 13:08 07-Dreams
DR8 -0.34 dB -9.82 dB 11:47 08-Black Hearted Woman
DR9 -0.34 dB -10.80 dB 4:08 01-Done Somebody Wrong
DR9 -0.34 dB -11.35 dB 7:08 02-Come And Go Blues
DR9 -0.34 dB -11.56 dB 14:03 03-Rockin' Horse
DR8 -0.34 dB -9.51 dB 3:56 04-Trouble No More
DR9 -0.34 dB -11.20 dB 3:34 05-Midnight Rider
DR9 -0.34 dB -10.81 dB 8:03 01-Blue Sky
DR9 -0.34 dB -11.74 dB 18:04 02-You Don't Love Me
DR16 -0.34 dB -20.06 dB 6:28 03-Crowd noise
DR8 -0.34 dB -10.99 dB 10:37 04-Whipping Post
DR12 -0.34 dB -15.05 dB 3:30 05-Will The Circle Be Unbroken?
DR8 -0.34 dB -10.53 dB 4:25 06-Whipping Post - reprise
––––––––––––––––––––––––––––––––––––––––

Number of tracks: 19
Official DR value: DR9

Samplerate: 48000 Hz
Channels: 2
Bits per sample: 24
Bitrate: 1679 kbps
Codec: FLAC
================================================================================


Thanks to the Original customer!