The Anchoress - Confessions Of A Romance Novelist (2015) [Official Digital Download]

Posted By: HDV
The Anchoress - Confessions Of A Romance Novelist (2015) [Official Digital Download]

The Anchoress - Confessions Of A Romance Novelist (2015)
FLAC (tracks) 24-bit/44,1 kHz | Time - 49:36 minutes | 598 MB
Studio Master, Official Digital Download | Artwork: Front cover

Revengepop? The prog Karen Carpenter? Barbra Streisand on acid? Bat For Lashes on a bookbinge? Whatever way you choose to describe "Confessions of A Romance Novelist", the debut album by The Anchoress, one thing’s for sure: it packs a punch. Catherine Anne Davies (aka The Anchoress) sums up the album's overall concept as "deconstructing normative ideas of love and romance", with each song sung by a different character.

Draper helped to capture the collection of songs on which Catherine played a variety of instruments, including piano, guitar, flute, omnichord, mellotron, wurlitzer, glockenspiel, and celeste, as well as multitracking up to 25 vocal harmonies on some of the songs. Yet, recording was interrupted by a series of events that threatened to derail the project completely. She says: "This has been made on a wing and a prayer, lots of favours, one car crash, one death, one broken hand, and a lot of patience on so many parts. Stir in 3 jobs, 4 studios, 2 arrests, 3 pianos, 40 songs and 1 very patient enginee… and you get some way to understanding what a long road it has been".

You can hear this distilled in the Prince inspired feminist manifesto ‘One For Sorrow’ that questions the concept of marriage. There’s a different take on obsessional love in the album’s title track, where the album’s narrator ironically references her "bedroom shrine to Margaret Thatcher". Meanwhile, 'You And Only You' an anthemic ode to being better off alone features the distinctive operatic indiewail of Mansun's Paul Draper, who coproduced the album with Catherine.

Tracklist:

01 - Long Year
02 - What Goes Around
03 - Doesn't Kill You
04 - You and Only You feat. Paul Draper
05 - One For Sorrow
06 - P.S. Fuck You
07 - Popular
08 - Bury Me
09 - Intermission (Notes To The Editor)
10 - Waiting to Breathe
11 - Chip On Your Shoulder
12 - Confessions of a Romance Novelist
13 - 13 Rivers of Ice [Bonus Track]

Analyzed: The Anchoress / Confessions of a Romance Novelist
––––––––––––––––––––––––––––––––––––––––

DR Peak RMS Duration Track
––––––––––––––––––––––––––––––––––––––––
DR7 -0.01 dB -10.00 dB 3:51 01-Long Year
DR8 -0.51 dB -9.73 dB 4:17 02-What Goes Around
DR7 -0.10 dB -7.84 dB 4:40 03-Doesn't Kill You
DR6 -0.10 dB -7.85 dB 4:09 04-You and Only You feat. Paul Draper
DR8 -0.01 dB -10.05 dB 3:24 05-One For Sorrow
DR6 -0.01 dB -8.08 dB 3:19 06-P.S. Fuck You
DR9 -0.01 dB -11.20 dB 3:57 07-Popular
DR8 -1.61 dB -11.12 dB 3:43 08-Bury Me
DR8 -5.35 dB -14.82 dB 2:11 09-Intermission (Notes To The Editor)
DR7 -0.12 dB -9.24 dB 3:01 10-Waiting to Breathe
DR7 -0.01 dB -7.99 dB 2:58 11-Chip On Your Shoulder
DR7 -0.04 dB -10.75 dB 6:24 12-Confessions of a Romance Novelist
DR11 -0.02 dB -14.80 dB 3:43 13-13 Rivers of Ice (Bonus Track)
––––––––––––––––––––––––––––––––––––––––

Number of tracks: 13
Official DR value: DR8

Samplerate: 44100 Hz
Channels: 2
Bits per sample: 24
Bitrate: 1402 kbps
Codec: FLAC
================================================================================


Thanks to the Original customer!