The Byrds - The Byrds' Greatest Hits (1967) [SACD 1999] PS3 ISO + Hi-Res FLAC

Posted By: HDAtall
The Byrds - The Byrds' Greatest Hits (1967) [SACD 1999] PS3 ISO + Hi-Res FLAC

The Byrds - The Byrds' Greatest Hits (1967) [SACD Reissue 1999]
PS3 Rip | SACD ISO | DSD64 2.0 > 1-bit/2.8224 MHz | 43:03 minutes | Scans included | 1,25 GB
or FLAC(converted with foobar2000 to tracks) 24bit/88,2 kHz | Full Scans included | 826 MB

Without question, the Byrds were one of the great bands of the '60s and one of the few American bands of their time to continually turn out inventive, compelling albums. As they were recording a series of fine records, they turned out a number of classic singles that unquestionably defined their era. The Byrds' Greatest Hits does an excellent job of chronicling the peak years of their popularity before they went country-rock on 1968's Sweetheart of the Rodeo. Apart from the minor hits "It Won't Be Wrong," "Set You Free This Time," and "Have You Seen Her Face," all of the group's hit singles – from 1965's "Mr. Tambourine Man" to 1967's "My Back Pages" – are included: "All I Really Want to Do," "Turn! Turn! Turn! (To Everything There Is a Season)," "Eight Miles High," "5D (Fifth Dimension)," "Mr. Spaceman," and "So You Want to Be a Rock N' Roll Star." Yes, some great songs were left behind on the albums, but important cuts like "I'll Feel a Whole Lot Better," "The Bells of Rhymney," and "Chimes of Freedom" are added, making this pretty close to a definitive single-disc summary of the Byrds' prime.

Tracklist:

01 - Mr. Tambourine Man (2:29)
02 - I'll Feel a Whole Lot Better (2:32)
03 - The Bells of Rhymney (3:30)
04 - Turn! Turn! Turn! (To Everything There Is a Season) (3:49)
05 - All I Really Want to Do (2:04)
06 - Chimes of Freedom (3:51)
07 - Eight Miles High (3:34)
08 - Mr. Spaceman (2:09)
09 - 5D (Fifth Dimension) (2:33)
10 - So You Want to Be a Rock & Roll Star (2:05)
11 - My Back Pages (3:08)
12 - It Won't Be Wrong [Bonus track] (1:58)
13 - Set You Free This Time [Bonus track] (2:49)
14 - Have You Seen Her Face [Bonus track] (2:40)

Original Recordings Produced by Terry Melcher, Allen Stanton & Gary Usher.
Engineered for SACD by Vic Anesini, Sony Music Studios, NY.

Analyzed: The Byrds / The Byrds' Greatest Hits
––––––––––––––––––––––––––––––––––––––––

DR Peak RMS Duration Track
––––––––––––––––––––––––––––––––––––––––
DR10 -6.03 dB -18.08 dB 2:29 01-Mr. Tambourine Man
DR10 -6.03 dB -17.55 dB 2:32 02-I'll Feel A Whole Lot Better
DR10 -6.92 dB -18.37 dB 3:30 03-The Bells Of Rhymney
DR11 -7.17 dB -19.88 dB 3:50 04-Turn! Turn! Turn! (To Everything There Is A Season)
DR9 -7.49 dB -18.27 dB 2:03 05-All I Really Want To Do
DR10 -7.04 dB -19.97 dB 3:50 06-Chimes Of Freedom
DR11 -6.21 dB -19.26 dB 3:34 07-Eight Miles High
DR11 -5.92 dB -18.44 dB 2:08 08-Mr. Spaceman
DR10 -5.97 dB -17.92 dB 2:31 09-5D (Fifth Dimension)
DR9 -8.02 dB -18.73 dB 2:04 10-So You Want To Be A Rock 'N' Roll Star
DR10 -8.10 dB -21.06 dB 3:08 11-My Back Pages
DR11 -7.19 dB -19.51 dB 1:57 12-It Won't Be Wrong
DR11 -8.08 dB -22.31 dB 2:49 13-Set You Free This Time
DR11 -7.02 dB -20.00 dB 2:42 14-Have You Seen Her Face
––––––––––––––––––––––––––––––––––––––––

Number of tracks: 14
Official DR value: DR10

Samplerate: 2822400 Hz / PCM Samplerate: 88200 Hz
Channels: 2
Bits per sample: 24
Bitrate: 5645 kbps
Codec: DSD64


Thanks to ManWhoCan!
Uncompressed SACD ISO size > 1,61 GB