The Enid - Live at The Citadel (2017) [Official Digital Download]

Posted By: HDV
The Enid - Live at The Citadel (2017) [Official Digital Download]

Robert John Godfrey & The Enid - Live At The Citadel (2017)
FLAC (tracks) 24-bit/48 kHz | Time - 76:45 minutes | 757 MB
Studio Master Re-encoded - Source "24-96" files | Artwork: Front cover

The Enid are a British progressive rock band founded in 1973. "Live At The Citadel" is the unplugged performance with the band's original founder Robert John Godfrey. Recorded on a spellbinding evening where the music emanated profound emotions, this performance is a completely unique rendition of just a segment of the band's full repertoire, formed carefully to captivate. This one-off version of the songs - played without drums and bass - allows parts of the music perhaps not noticed before to shine through and creates an extraordinary atmosphere.

The Enid are a band spanning five decades. Founded in the 70's by Robert John Godfrey following his previous work as a Charisma Records solo artist and Barclay James Harvest composer. Described as “one of the greatest composers Great Britain has ever produced” by Tommy Vance on Radio 1, Godfrey and the original members – friends from Finchden (a school for naughty boys) in Kent – enjoyed great success in the 1970s for their mythology inspired instrumental releases with EMI. A progressive band born in the Punk revolution, The Enid won over cynical audiences with their politically incorrect covers including Land of Hope and Glory (Land of Dope and Tory) and a well-spoken version of The Troggs Wild Thing (“Wild thing! You naughty, naughty boy”). In the 1980s The Enid split from EMI, successfully becoming the first band to survive entirely through crowdfunding – a model now commonly used by music artists such as Marillion and Radiohead. The band’s fan club ‘The Stand’ became so big it had to be investigated by MI5 for the government’s suspicion of it being a dangerous cult entity. Later disproved, the band continued to thrive, pressing its own records, selling out large theatres and storming public opinion polls in music magazines.

Tracklist:

01 - Mayday Galliard
02 - Ondine
03 - When the World is Full
04 - Death
05 - The Lovers
06 - Courtege
07 - Humoresque
08 - Spring
09 - Fand
10 - Chaldean Crossing

Recorded on October 21, 2017 at The Citadel Arts Centre, St. Helens, U.K.

Please note: Here's carefully processed to 24/48 files. Dynamic Range & peak level keep the same.
Sourced 24/96 files - See the screenshot >

The Enid - Live at The Citadel (2017) [Official Digital Download]

Analyzed: The Enid / Robert John Godfrey & The Enid: Live at The Citadel
––––––––––––––––––––––––––––––––––––––––

DR Peak RMS Duration Track
––––––––––––––––––––––––––––––––––––––––
DR12 -4.20 dB -21.10 dB 6:31 01-Mayday Galliard
DR13 -10.30 dB -29.72 dB 3:41 02-Ondine
DR12 -6.20 dB -22.81 dB 5:34 03-When the World is Full
DR13 0.00 dB -19.80 dB 4:12 04-Death
DR12 -2.32 dB -24.61 dB 6:18 05-The Lovers
DR12 -5.69 dB -21.64 dB 5:18 06-Courtege
DR13 -1.40 dB -20.43 dB 5:46 07-Humoresque
DR14 -2.16 dB -21.79 dB 6:43 08-Spring
DR16 -0.02 dB -22.60 dB 22:39 09-Fand
DR13 -0.37 dB -19.03 dB 10:04 10-Chaldean Crossing
––––––––––––––––––––––––––––––––––––––––

Number of tracks: 10
Official DR value: DR13

Samplerate: 48000 Hz
Channels: 2
Bits per sample: 24
Bitrate: 1415 kbps
Codec: FLAC
================================================================================


Thanks to the Original customer!

The Enid - Arise And Shine, Volume 2: Risen
The Enid - Invicta