The Who - Live At Shea Stadium 1982 (2015) [Blu-Ray Rip, FLAC 24-bit/96 kHz] RE-UP

Posted By: HDV
The Who - Live At Shea Stadium 1982 (2015) [Blu-Ray Rip, FLAC 24-bit/96 kHz] RE-UP

The Who - Live At Shea Stadium 1982 (2015)
FLAC (tracks) 24-bit/96 kHz | Time - 145:55 minutes | 3,05 GB
Blu-Ray Rip to Hi-Res FLAC | Sourced track: LPCM 2.0 | Artwork: Front cover

The Who's 1982 tour, which was all in North America apart from two warm-up dates at the Birmingham NEC in England, was their last to feature Kenney Jones on drums and they wouldn't tour again until 1989. The tour promoted the recent 'It's Hard' album, which had been released in June 1982, and the set list included a number of tracks from that album, some of which the band would only play live on this tour. This concert film features the show from the second of their two nights at New York's Shea Stadium and was filmed on October 13th 1982. Although a couple of tracks have appeared on compilations, this is the first official release of the full show and features restored footage and newly mixed sound. The release includes Bonus tracks from the first night at Shea Stadium.

Tracklist:

01 - Substitute
02 - I Can't Explain
03 - Dangerous
04 - Sister Disco
05 - The Quiet One
06 - It's Hard
07 - Eminence Front
08 - Behind Blue Eyes
09 - Baba O Riley
10 - I'm One
11 - The Punk and the Godfather
12 - Drowned
13 - Tattoo
14 - Cry If You Want
15 - Who Are You
16 - Pinball Wizard
17 - See Me Feel Me
18 - Love Reign O er Me
19 - Long Live Rock
20 - Won't Get Fooled Again
21 - Young Man Blues
22 - Naked Eye
23 - I Saw Her Standing There
24 - Summertime Blues
25 - Twist and Shout

BONUS TRACKS:
01 - Substitute
02 - I Can't Explain
03 - My Generation
04 - A Man Is a Man
05 - 5:15

Analyzed: The Who / Live at Shea Stadium 1982
––––––––––––––––––––––––––––––––––––––––

DR Peak RMS Duration Track
––––––––––––––––––––––––––––––––––––––––
DR9 -0.22 dB -10.85 dB 2:59 01-Substitute
DR9 -0.22 dB -11.65 dB 3:05 02-I Can't Explain
DR9 -0.22 dB -10.58 dB 3:47 03-Dangerous
DR10 -0.21 dB -13.61 dB 5:40 04-Sister Disco
DR9 -0.21 dB -11.67 dB 4:48 05-The Quiet One
DR10 -0.21 dB -12.14 dB 5:23 06-It's Hard
DR11 -0.21 dB -12.49 dB 5:52 07-Eminence Front
DR11 -0.22 dB -14.14 dB 3:58 08-Behind Blue Eyes
DR10 -0.21 dB -12.69 dB 6:04 09-Baba O Riley
DR13 -1.50 dB -20.69 dB 0:57 10-I'm One
DR10 -0.22 dB -12.46 dB 5:17 11-The Punk and the Godfather
DR10 -0.22 dB -12.04 dB 9:20 12-Drowned
DR11 -0.22 dB -14.24 dB 3:04 13-Tattoo
DR10 -0.22 dB -12.74 dB 7:38 14-Cry If You Want
DR10 -0.22 dB -12.87 dB 6:59 15-Who Are You
DR10 -0.22 dB -12.77 dB 3:02 16-Pinball Wizard
DR11 -0.22 dB -13.06 dB 4:46 17-See Me Feel Me
DR11 -0.22 dB -13.77 dB 5:33 18-Love Reign O er Me
DR10 -0.22 dB -12.78 dB 4:19 19-Long Live Rock
DR11 -0.21 dB -13.72 dB 11:40 20-Won't Get Fooled Again
DR10 -0.22 dB -12.51 dB 4:28 21-Young Man Blues
DR11 -0.22 dB -14.93 dB 6:34 22-Naked Eye
DR11 -0.22 dB -12.54 dB 3:09 23-I Saw Her Standing There
DR11 -0.22 dB -12.70 dB 3:32 24-Summertime Blues
DR11 -0.22 dB -13.69 dB 4:39 25-Twist and Shout
––––––––––––––––––––––––––––––––––––––––

Number of tracks: 25
Official DR value: DR10

Samplerate: 96000 Hz
Channels: 2
Bits per sample: 24
Bitrate: 2720 kbps
Codec: FLAC
================================================================================

Analyzed: The Who / Live at Shea Stadium 1982 [Bonus Tracks]
––––––––––––––––––––––––––––––––––––––––

DR Peak RMS Duration Track
––––––––––––––––––––––––––––––––––––––––
DR9 -0.22 dB -11.43 dB 2:54 01-Substitute
DR9 -0.22 dB -11.05 dB 2:25 02-I Can't Explain
DR9 -0.02 dB -11.23 dB 2:35 03-My Generation
DR10 -0.02 dB -12.85 dB 4:37 04-A Man Is a Man
DR10 -0.02 dB -12.17 dB 6:49 05-5:15
––––––––––––––––––––––––––––––––––––––––

Number of tracks: 5
Official DR value: DR10

Samplerate: 96000 Hz
Channels: 2
Bits per sample: 24
Bitrate: 2889 kbps
Codec: FLAC
================================================================================


Thanks to the Original customer!

More 'The Who' in Hi-Res