The Who - My Generation (1965/2014) [Deluxe Edition} [Official Digital Download 24bit/96kHz] RE-UP

Posted By: HDV
The Who - My Generation (1965/2014) [Deluxe Edition} [Official Digital Download 24bit/96kHz] RE-UP

The Who - My Generation (1965/2014) [Deluxe Edition]
FLAC (tracks) 24 bit/96 kHz | Time - 91:39 minutes | 1,98 GB
Studio Master, Official Digital Download | Stereo | Artwork: Front cover

The legendary debut album by one of rock’s greatest bands is finally remixed, expanded and seriously updated. Released as The Who Sings My Generation in the U.S. with one track change months after being issued in the U.K. as simply My Generation, this classic album has never been previously released in real stereo anywhere and has never been remastered from the original masters. With the release of this special 2 CD Deluxe Edition, these problems are resolved, and the package has now been expanded from its original twelve tracks to 30.

An explosive debut, and the hardest mod pop recorded by anyone. At the time of its release, it also had the most ferociously powerful guitars and drums yet captured on a rock record. Pete Townshend's exhilarating chord crunches and guitar distortions threaten to leap off the grooves on "My Generation" and "Out in the Street"; Keith Moon attacks the drums with a lightning, ruthless finesse throughout. Some "Maximum R&B" influence lingered in the two James Brown covers, but much of Townshend's original material fused Beatlesque hooks and power chords with anthemic mod lyrics, with "The Good's Gone," "Much Too Much," "La La La Lies," and especially "The Kids Are Alright" being highlights. "A Legal Matter" hinted at more ambitious lyrical concerns, and "The Ox" was instrumental mayhem that pushed the envelope of 1965 amplification with its guitar feedback and nonstop crashing drum rolls. While the execution was sometimes crude, and the songwriting not as sophisticated as it would shortly become, the Who never surpassed the pure energy level of this record.

Tracklist:

01 - Out In The Street (Stereo Version)
02 - I Don't Mind (Stereo Version)
03 - The Good's Gone (Stereo Version)
04 - La-La-La Lies (Stereo Version)
05 - Much Too Much (Stereo Version)
06 - My Generation (Stereo Version)
07 - The Kids Are Alright (Stereo Version)
08 - Please, Please, Please (Stereo Version)
09 - It's Not True (Stereo Version)
10 - I'm A Man (Stereo Version)
11 - A Legal Matter (Stereo Version)
12 - The Ox (Stereo Version)
13 - I Can't Explain (Stereo Version)
14 - Bald Headed Woman (Stereo Version)
15 - Anyway Anyhow Anywhere (Alternate Stereo Version)
16 - Daddy Rolling Stone (Stereo Version)
17 - Anytime You Want Me (Stereo Version)
18 - Shout And Shimmy (Stereo Version)
19 - Circles (Stereo Version)
20 - Instant Party Mixture (Stereo Version)
21 - Leaving Here (Alternate Stereo Version)
22 - Lubie (Come Back Home) (Stereo Version)
23 - (Love Is Like A) Heat Wave (Stereo Version)
24 - Motoring (Stereo Version)
25 - Daddy Rolling Stone (Alternate Stereo Version)
26 - The Kids Are Alright (Alternate Stereo Version)
27 - My Generation (Instrumental Stereo Version)
28 - Out In The Street (Instrumental Stereo Version)
29 - I Don't Mind (Full Length Stereo Version)
30 - The Good's Gone (Full Length Stereo Version)01 - Out In The Street (Stereo Version)
02 - I Don't Mind (Stereo Version)
03 - The Good's Gone (Stereo Version)
04 - La-La-La Lies (Stereo Version)
05 - Much Too Much (Stereo Version)
06 - My Generation (Stereo Version)
07 - The Kids Are Alright (Stereo Version)
08 - Please, Please, Please (Stereo Version)
09 - It's Not True (Stereo Version)
10 - I'm A Man (Stereo Version)
11 - A Legal Matter (Stereo Version)
12 - The Ox (Stereo Version)
13 - I Can't Explain (Stereo Version)
14 - Bald Headed Woman (Stereo Version)
15 - Anyway Anyhow Anywhere (Alternate Stereo Version)
16 - Daddy Rolling Stone (Stereo Version)
17 - Anytime You Want Me (Stereo Version)
18 - Shout And Shimmy (Stereo Version)
19 - Circles (Stereo Version)
20 - Instant Party Mixture (Stereo Version)
21 - Leaving Here (Alternate Stereo Version)
22 - Lubie (Come Back Home) (Stereo Version)
23 - (Love Is Like A) Heat Wave (Stereo Version)
24 - Motoring (Stereo Version)
25 - Daddy Rolling Stone (Alternate Stereo Version)
26 - The Kids Are Alright (Alternate Stereo Version)
27 - My Generation (Instrumental Stereo Version)
28 - Out In The Street (Instrumental Stereo Version)
29 - I Don't Mind (Full Length Stereo Version)
30 - The Good's Gone (Full Length Stereo Version)

Analyzed: The Who / My Generation
––––––––––––––––––––––––––––––––––––––––

DR Peak RMS Duration Track
––––––––––––––––––––––––––––––––––––––––
DR12 0.00 dB -13.25 dB 2:30 01-Out In The Street (Stereo Version)
DR12 0.00 dB -13.45 dB 2:36 02-I Don't Mind (Stereo Version)
DR10 0.00 dB -11.42 dB 4:06 03-The Good's Gone (Stereo Version)
DR10 0.00 dB -11.48 dB 2:16 04-La-La-La Lies (Stereo Version)
DR11 -0.09 dB -12.45 dB 2:43 05-Much Too Much (Stereo Version)
DR10 0.00 dB -11.74 dB 3:19 06-My Generation (Stereo Version)
DR9 0.00 dB -10.17 dB 3:06 07-The Kids Are Alright (Stereo Version)
DR11 0.00 dB -12.46 dB 2:44 08-Please, Please, Please (Stereo Version)
DR10 0.00 dB -11.04 dB 2:30 09-It's Not True (Stereo Version)
DR11 0.00 dB -13.65 dB 3:20 10-I'm A Man (Stereo Version)
DR11 -0.06 dB -12.30 dB 2:50 11-A Legal Matter (Stereo Version)
DR10 0.00 dB -11.55 dB 3:56 12-The Ox (Stereo Version)
DR12 0.00 dB -12.70 dB 2:06 13-I Can't Explain (Stereo Version)
DR12 0.00 dB -13.25 dB 2:34 14-Bald Headed Woman (Stereo Version)
DR10 0.00 dB -11.52 dB 2:44 15-Anyway Anyhow Anywhere (Alternate Stereo Version)
DR11 0.00 dB -12.28 dB 3:00 16-Daddy Rolling Stone (Stereo Version)
DR11 0.00 dB -13.00 dB 2:37 17-Anytime You Want Me (Stereo Version)
DR11 0.00 dB -12.41 dB 3:19 18-Shout And Shimmy (Stereo Version)
DR10 0.00 dB -11.22 dB 3:14 19-Circles (Stereo Version)
DR12 0.00 dB -13.02 dB 3:30 20-Instant Party Mixture (Stereo Version)
DR12 0.00 dB -13.01 dB 2:49 21-Leaving Here (Alternate Stereo Version)
DR11 -0.02 dB -12.66 dB 3:43 22-Lubie (Come Back Home) (Stereo Version)
DR11 0.00 dB -11.87 dB 2:42 23-(Love Is Like A) Heat Wave (Stereo Version)
DR11 0.00 dB -12.13 dB 2:47 24-Motoring (Stereo Version)
DR11 0.00 dB -12.30 dB 3:07 25-Daddy Rolling Stone (Alternate Stereo Version)
DR10 0.00 dB -11.06 dB 3:08 26-The Kids Are Alright (Alternate Stereo Version)
DR12 0.00 dB -13.20 dB 3:38 27-My Generation (Instrumental Stereo Version)
DR12 0.00 dB -13.31 dB 2:33 28-Out In The Street (Instrumental Stereo Version)
DR12 0.00 dB -13.10 dB 3:45 29-I Don't Mind (Full Length Stereo Version)
DR10 0.00 dB -11.38 dB 4:27 30-The Good's Gone (Full Length Stereo Version)
––––––––––––––––––––––––––––––––––––––––

Number of tracks: 30
Official DR value: DR11

Samplerate: 96000 Hz
Channels: 2
Bits per sample: 24
Bitrate: 2822 kbps
Codec: FLAC
================================================================================


Thanks to the Original customer!

More than 20 albums of 'The WHO' in Hi-Res