Tim Sparks - Chasin' the Boogie (2014) [Official Digital Download]

Posted By: El Misha
Tim Sparks - Chasin' the Boogie (2014) [Official Digital Download]

Tim Sparks - Chasin' the Boogie (2014)
FLAC (tracks) 24-bit/48 kHz | Time - 40:33 | 486 MB
Studio Master, Official Digital Download | Artwork: Front cover+digital booklet

Put simply, Chasin the Boogie is guitar music at its best. Even on songs that you thought you knew, you ll find yourself hitting the repeat button to make sure that what you just heard really happened. Whether you re already a fan of solo guitar music or not, give Chasin the Boogie a spin and allow yourself to be taken along!



Ever since bursting on the scene with his 1993 release »» The Nutcracker Suite, Tim Sparks has captivated guitar fans with some of the finest fingerstyle guitar playing around. An artist who can be difficult to categorize, Sparks albums and live performances have featured classical, blues, jazz, folk, klezmer, and other styles, and yet they all have a common thread that makes them immediately identifiable. Clearly, for Sparks the music itself is more important than the genre it may have originated in, and Chasin the Boogie continues this approach. Whether completely re-imagining the Beatles Blackbird, creating a complex guitar arrangement of Joni Mitchell s Both Sides Now, playing the folk standards Wayfaring Stranger and I ll Fly Away, or getting gritty on the Mississippi Blues, Sparks creates solo steel-string guitar magic like only he can. Put simply, Chasin the Boogie is guitar music at its best. Even on songs that you thought you knew, you ll find yourself hitting the repeat button to make sure that what you just heard really happened. Whether you re already a fan of solo guitar music or not, give Chasin the Boogie a spin and allow yourself to be taken along! –Teja Gerken, Peg Head Nation

Chasin' the Boogie is the tenth solo guitar album from local fingerstyle magician Tim Sparks. Once part of the vintage jazz outfit Rio Nido, Sparks subsequently delved into a broad swath of global music where few guitarists ventured before, including Balkans dances and Russian symphonies. Inspired by visits to his native North Carolina, Boogie is a collection of blues, gospel and pop standards, all with original arrangements and erudite historical references. Jazz sneaks into the spiritual standar I'll Fly Away and Joni Mitchell's Both Sides Now, for instance. An unusual key and tricky extrapolations delightfully twist the melody of the Beatles' Blackbird. The Mississippi Blues is an intricate, rollicking joy ride, while the original Blue La La recalls eccentric New Orleans guitarist Snooks Eaglin. –Rick Mason, City Pages MN


Tracklist:

1. Carolina Blue Guitar
2. Chasin' the Boogie
3. I'll Fly Away
4. Blackbird
5. Reckless Persuasion
6. Mr. Bojangles
7. What a Friend We Have in Jesus
8. The Mississippi Blues
9. Blue La La
10. Both Sides Now
11. Wayfaring Stranger
12. Blue Bayou

foobar2000 1.3.9 / Dynamic Range Meter 1.1.1
log date: 2019-08-20 06:07:27

––––––––––––––––––––––––––––––––––––––––
Analyzed: Tim Sparks / Chasin' the Boogie
––––––––––––––––––––––––––––––––––––––––

DR Peak RMS Duration Track
––––––––––––––––––––––––––––––––––––––––
DR9 0.00 dB -11.31 dB 3:26 01-Carolina Blue Guitar
DR9 0.00 dB -10.42 dB 3:08 02-Chasin’ the Boogie
DR9 0.00 dB -11.86 dB 5:21 03-I’ll Fly Away
DR10 0.00 dB -13.25 dB 3:04 04-Blackbird
DR9 0.00 dB -11.02 dB 3:51 05-Reckless Persuasion
DR10 0.00 dB -13.64 dB 3:29 06-Mr. Bojangles
DR10 0.00 dB -12.17 dB 1:49 07-What A Friend We Have In Jesus
DR10 0.00 dB -11.76 dB 2:58 08-The Mississippi Blues
DR9 0.00 dB -10.09 dB 3:05 09-Blue La La
DR13 0.00 dB -16.94 dB 3:11 10-Both Sides Now
DR10 0.00 dB -11.70 dB 3:50 11-Wayfaring Stranger
DR10 0.00 dB -13.02 dB 4:56 12-Blue Bayou
––––––––––––––––––––––––––––––––––––––––

Number of tracks: 12
Official DR value: DR10

Samplerate: 48000 Hz
Channels: 2
Bits per sample: 24
Bitrate: 1499 kbps
Codec: FLAC
================================================================================



Thanks to the Original customer!