Todd Rundgren - Something-Anything (1972) [Reissue 2018] PS3 ISO + Hi-Res FLAC

Posted By: HDAtall
Todd Rundgren - Something-Anything (1972) [Reissue 2018] PS3 ISO + Hi-Res FLAC

Todd Rundgren - Something-Anything (1972) [Reissue 2018]
PS3 Rip | SACD ISO | DSD64 2.0 > 1-bit/2.8224 MHz | 89:40 minutes | Scans included | 2,71 GB
or FLAC(converted with foobar2000 to tracks) 24bit/88,2 kHz | Full Scans included | 1,87 GB

This 1972 release, from Bearsville Records, was engineered by Todd Rundgren with a little help from his friends Rick Derringer, Billy Mundi, Moogy Klingman, Amos Garrett, Bugsy Maugh and Gene Didwiddie (both from the Butterfield Blues Band), the Hunt Brothers, Rick Vito, Jim Horn and the Brecker Brothers. This 45th Anniversary Reissue, never before available on SACD, have been mastered from the original stereo tapes by Kevin Gray at Cohearent Audio.

After two albums, Todd Rundgren had one hit and a burgeoning cult following, plus growing respect as a hitmaking record producer. There's no question he was busy, but as it turns out, all this work only scratched the surface of his ambition. He had decided to abandon the Runt pretense and recorded a full double album by himself (save for one side). Others had recorded one-man albums before, most notably Stevie Wonder and Paul McCartney, but Rundgren – without borrowing musically from either artist – captured the homemade ambience of McCartney with the visionary feel of Music of My Mind, adding an encyclopedic knowledge of pop music from Gilbert & Sullivan through Jimi Hendrix, plus the crazed zeal of a pioneer. Listening to Something/Anything? is a mind-altering trip in itself, no matter how many instantly memorable, shamelessly accessible pop songs are scattered throughout the album. Each side of the double album is a concept onto itself. The first side is "a bouquet of ear-catching melodies"; side two is "the cerebral side"; on side three "the kid gets heavy"; side four is his mock pop operetta, recorded with a full band including the Sales brothers. It gallops through everything – Carole King tributes ("I Saw the Light"), classic ballads ("Hello It's Me," "It Wouldn't Have Made Any Difference"), Motown ("Wolfman Jack"), blinding power pop ("Couldn't I Just Tell You"), psychedelic hard rock ("Black Maria"), pure weirdness ("I Went to the Mirror"), blue-eyed soul ("Dust in the Wind"), and scores of brilliant songs that don't fall into any particular style ("Cold Morning Light," "It Takes Two to Tango"). It's an amazing journey that's remarkably unpretentious. He may have contributed self-penned liner notes, but Rundgren peppers his writing with self-aware, self-deprecating asides, and he also indulges his bizarre sense of humor with gross-outs ("Piss Aaron") and sheer quirkiness, such as an aural tour of the studio at the beginning of side two. Something/Anything? has a ton of loose ends throughout: plenty of studio tricks, slight songs (but no filler), snippets of dialogue, and purposely botched beginnings, but all these throwaways simply add context – they're what makes the album into a kaleidoscopic odyssey through the mind of an insanely gifted pop music obsessive. Rundgren occasionally touched on the sheer brilliance of Something/Anything? in his later work, but this extraordinary double album is the one time where his classicist songcraft and messy genius converged to create an utterly unique, glorious record.

Tracklist:

01. I Saw The Light
02. It Wouldn't Have Made Any Difference
03. Wolfman Jack
04. Cold Morning Light
05. It Takes Two To Tango (This Is For The Girls)
06. Sweeter Memories
07. Intro
08. Breathless
09. The Night The Carousel Burnt Down
10. Saving Grace
11. Marlene
12. Song Of The Viking
13. I Went To The Mirror
14. Black Maria
15. One More Day (No Word)
16. Couldn't I Just Tell You
17. Torch Song
18. Little Red Lights
19. Overture - My Roots: Money (That's What I Want) \ Messin' With The Kid
20. Dust In The Wind
21. Piss Aaron
22. Hello, It's Me
23. Some Folks Is Even Whiter Than Me
24. You Left Me Sore
25. Slut

Mastered from the original stereo tapes by Kevin Gray at Cohearent Audio.
Authored by Gus Skinas at the Super Audio Center.

foobar2000 1.3.17 / Dynamic Range Meter 1.1.1

––––––––––––––––––––––––––––––––––––––––
Analyzed: Todd Rundgren / Something/Anything?
––––––––––––––––––––––––––––––––––––––––

DR Peak RMS Duration Track
––––––––––––––––––––––––––––––––––––––––
DR12 -6.07 dB -19.91 dB 3:01 01-I Saw The Light
DR13 -5.00 dB -22.47 dB 3:51 02-It Wouldn't Have Made Any Difference
DR11 -6.32 dB -19.67 dB 2:56 03-Wolfman Jack
DR12 -7.41 dB -21.86 dB 3:35 04-Cold Morning Light
DR10 -8.47 dB -20.09 dB 2:42 05-It Takes Two To Tango (This Is For The Girls)
DR11 -7.96 dB -21.94 dB 3:37 06-Sweeter Memories
DR13 -5.93 dB -25.17 dB 1:12 07-Intro
DR10 -8.10 dB -19.93 dB 3:16 08-Breathless
DR10 -7.41 dB -20.75 dB 4:29 09-The Night The Carousel Burnt Down
DR11 -6.82 dB -20.16 dB 4:12 10-Saving Grace
DR12 -6.36 dB -21.74 dB 3:55 11-Marlene
DR10 -7.56 dB -21.18 dB 2:36 12-Song Of The Viking
DR14 -5.84 dB -23.69 dB 4:07 13-I Went To The Mirror
DR13 -4.36 dB -21.78 dB 5:21 14-Black Maria
DR11 -6.75 dB -21.26 dB 3:43 15-One More Day (No Word)
DR11 -7.35 dB -20.33 dB 3:35 16-Couldn't I Just Tell You
DR10 -8.77 dB -21.91 dB 2:53 17-Torch Song
DR13 -5.74 dB -20.67 dB 4:53 18-Little Red Lights
DR12 -7.38 dB -22.22 dB 2:30 19-Overture - My Roots: Money (That's What I Want) \ Messin' With The Kid
DR11 -7.86 dB -21.68 dB 3:50 20-Dust In The Wind
DR11 -7.62 dB -20.80 dB 3:27 21-Piss Aaron
DR11 -7.04 dB -20.61 dB 4:38 22-Hello, It's Me
DR11 -6.69 dB -20.65 dB 4:00 23-Some Folks Is Even Whiter Than Me
DR14 -5.51 dB -23.18 dB 3:14 24-You Left Me Sore
DR11 -6.28 dB -19.58 dB 4:07 25-Slut
––––––––––––––––––––––––––––––––––––––––

Number of tracks: 25
Official DR value: DR12

Samplerate: 2822400 Hz / PCM Samplerate: 88200 Hz
Channels: 2
Bits per sample: 1
Bitrate: 5645 kbps
Codec: DSD64


Thanks to PS³SACD!
Uncompressed SACD ISO size > 3,59 GB
>