Tony Williams - Foreign Intrigue (1985/2014) [Official Digital Download 24/192]

Posted By: HDV
Tony Williams - Foreign Intrigue (1985/2014) [Official Digital Download 24/192]

Tony Williams - Foreign Intrigue (1985/2014)
FLAC (tracks) 24-bit/192 kHz | Time - 43:27 minutes | 1,78 GB
Studio Master, Official Digital Download | Artwork: Front cover

Influential drummer Tony Williams recorded "Foreign Intrigue" in 1985 for the relaunched Blue Note label with pianist Mulgrew Miller and trumpeter Wallace Roney, who would both remain with Williams for the next few years in his quintet. Foreign Intrigue, featuring modern electronic instruments such as drum machines and synthesizers, also highlights the performances of veteran musicians Bobby Hutcherson on vibes and Ron Carter on bass.

"I met Tony just before we recorded Foreign Intrigue. In that first recording session I just remember being awed by his prowess at the drums. As I got to know him on a personal level through the years I was continually amazed at his intelligence, his intense involvement with music and his love for the drums." – Mulgrew Miller, pianist

Tracklist:

01 - Foreign Intrigue
02 - My Michelle
03 - Life Of The Party
04 - Takin' My Time
05 - Clearways
06 - Sister Cheryl
07 - Arboretum

Produced by Tony Williams & Michael Cuscuna. Engineered by Peter Darmi.
Recorded on June 18 and 19, 1985 at M&I Studios, New York City.

Musicians:
Tony Williams - drums, electronic drums, drum machine
Donald Harrison - alto saxophone
Wallace Roney - trumpet
Bobby Hutcherson - vibraphone
Mulgrew Miller - piano
Ron Carter - bass

Analyzed: Tony Williams / Foreign Intrigue
––––––––––––––––––––––––––––––––––––––––

DR Peak RMS Duration Track
––––––––––––––––––––––––––––––––––––––––
DR10 -1.19 dB -12.93 dB 5:30 01-Foreign Intrigue
DR12 -0.10 dB -14.19 dB 6:55 02-My Michelle
DR9 -1.68 dB -12.45 dB 6:08 03-Life Of The Party
DR10 -0.74 dB -13.46 dB 6:44 04-Takin' My Time
DR10 -1.25 dB -14.10 dB 5:08 05-Clearways
DR11 -0.94 dB -13.91 dB 7:02 06-Sister Cheryl
DR11 -1.05 dB -14.61 dB 6:00 07-Arboretum
––––––––––––––––––––––––––––––––––––––––

Number of tracks: 7
Official DR value: DR10

Samplerate: 192000 Hz
Channels: 2
Bits per sample: 24
Bitrate: 5535 kbps
Codec: FLAC
================================================================================


Thanks to the Original customer!