Wagner - RSO Berlin / Marek Janowski - Tannhäuser (2012, Pentatone # PTC 5186 405) {3x Hybrid-SACD // ISO & HiRes FLAC}

Posted By: luckburz
Wagner - RSO Berlin / Marek Janowski - Tannhäuser (2012, Pentatone # PTC 5186 405) {3x Hybrid-SACD // ISO & HiRes FLAC}

Richard Wagner - Tannhäuser und der Sängerkrieg auf Wartburg WWV 70
Albert Dohmen / Robert Dean Smith / Rundfunk-Sinfonieorchester Berlin / Marek Janowski
3xSACD ISO (2.0/MCH): 7,82 GB | 24B/88,2kHz Stereo FLAC: 2,70 | Full Artwork
Label/Cat#: Pentatone # PTC 5186 405 | Country/Year: Netherlands 2012 | 5% Recovery Info
Genre: Classical | Style: Romantic, Opera

MD5 [X] CUE [ ] LOG [X] INFO TEXT [X] ARTWORK [X]

my rip [X] not my rip [ ]

Wagner - RSO Berlin / Marek Janowski - Tannhäuser (2012, Pentatone # PTC 5186 405) {3x Hybrid-SACD // ISO & HiRes FLAC}


16908351[0x102003f]: SACD-Ripper Version 0.36
16908351[0x102003f]: config: 00 00 00 0c 00 00 00 00 ff 41 00 04 00 00 00 00
16908351[0x102003f]: config: 00 00 00 00 00 00 00 00 00 00 00 00 00 00 00 00
16908351[0x102003f]: config: 00 00 00 00 00 00 00 00 00 00 00 00 00 00 00 00
16908351[0x102003f]: config: 00 00 00 00 00 00 00 00 00 00 00 00 00 00 00 00
16908351[0x102003f]: device_info: 75 6e 6e 61 6d 65 5c 10 80 00 00 00 00 53 a0 00
16908351[0x102003f]: device_info: 80 00 00 00 10 13 de 70 80 00 00 00 00 5e 74 00
16908351[0x102003f]: device_info: 00 00 00 00 00 00 00 00 00 00 00 00 7f ff ff ff
16908351[0x102003f]: device_info: 00 00 08 00 00 00 00 01 00 01 01 00 00 00 00 01
16908351[0x102003f]: disc inserted..
16908351[0x102003f]: config: 00 00 00 0c 00 00 00 10 ff 41 01 04 00 00 00 00
16908351[0x102003f]: config: 00 00 00 00 00 00 00 00 00 00 00 00 00 00 00 00
16908351[0x102003f]: config: 00 00 00 00 00 00 00 00 00 00 00 00 00 00 00 00
16908351[0x102003f]: config: 00 00 00 00 00 00 00 00 00 00 00 00 00 00 00 00
16908351[0x102003f]: device_info: 75 6e 6e 61 6d 65 5c 10 80 00 00 00 00 53 a0 00
16908351[0x102003f]: device_info: 80 00 00 00 10 13 de 70 80 00 00 00 00 5e 74 00
16908351[0x102003f]: device_info: 00 00 00 00 00 00 00 00 00 00 00 00 00 14 51 0d
16908351[0x102003f]: device_info: 00 00 08 00 00 00 00 01 00 01 01 00 00 00 00 01
16908351[0x102003f]: Album Title: Richard Wagner: Tannhuser
16908351[0x102003f]: Album Artist: Rundfunkchor Berlin, Rundfunk-Sinfonieorchester Be
16908351[0x102003f]: Disc Version: 01.20
16908351[0x102003f]: config: 00 00 00 0c 00 00 00 10 ff 41 01 04 00 00 00 00
16908351[0x102003f]: config: 00 00 00 00 00 00 00 00 00 00 00 00 00 00 00 00
16908351[0x102003f]: config: 00 00 00 00 00 00 00 00 00 00 00 00 00 00 00 00
16908351[0x102003f]: config: 00 00 00 00 00 00 00 00 00 00 00 00 00 00 00 00
16908351[0x102003f]: device_info: 75 6e 6e 61 6d 65 5c 10 80 00 00 00 00 53 a0 00
16908351[0x102003f]: device_info: 80 00 00 00 10 13 de 70 80 00 00 00 00 5e 74 00
16908351[0x102003f]: device_info: 00 00 00 00 00 00 00 00 00 00 00 00 00 14 51 0d
16908351[0x102003f]: device_info: 00 00 08 00 00 00 00 01 00 01 01 00 00 00 00 01
16908351[0x102003f]: succeeded. raw_spu number is 0
16908351[0x102003f]: succeeded. entry d0
16908351[0x102003f]: Establishing the interrupt tag on the interrupt PPU thread.
16908351[0x102003f]: ioctl_report_key1[45023901] 0
16908351[0x102003f]: sac_exec_generate_key 0 c9 0
16908351[0x102003f]: ioctl_send_key[2] c9 0
16908351[0x102003f]: ioctl_report_key[2] c8 0
16908351[0x102003f]: sac_exec_validate_key_1[0]
16908351[0x102003f]: sac_exec_generate_key_2[ae] 0
16908351[0x102003f]: ioctl_send_key[3] ae 0
16908351[0x102003f]: ioctl_report_key[3] b0 0
16908351[0x102003f]: sac_exec_validate_key_2[0]
16908351[0x102003f]: ioctl_report_key[4] 30 0
16908351[0x102003f]: sac_exec_validate_key_3[0]
16908351[0x102003f]: ioctl_report_finish [0xff] 0
16908351[0x102003f]: Queuing raw: /dev_usb003/Rundfunkchor Berlin, Rundfunk-Sinfonieorchester Berlin, con - Richard Wagner Tannhäuser.iso, start_lsn: 0, length_lsn: 1331469

17039494[0x1040086]: SACD-Ripper Version 0.36
17039494[0x1040086]: config: 00 00 00 0c 00 00 00 00 ff 41 00 04 00 00 00 00
17039494[0x1040086]: config: 00 00 00 00 00 00 00 00 00 00 00 00 00 00 00 00
17039494[0x1040086]: config: 00 00 00 00 00 00 00 00 00 00 00 00 00 00 00 00
17039494[0x1040086]: config: 00 00 00 00 00 00 00 00 00 00 00 00 00 00 00 00
17039494[0x1040086]: device_info: 75 6e 6e 61 6d 65 5c 10 80 00 00 00 00 53 a0 00
17039494[0x1040086]: device_info: 80 00 00 00 10 13 de 70 80 00 00 00 00 5a b0 00
17039494[0x1040086]: device_info: 00 00 00 00 00 00 00 00 00 00 00 00 00 14 51 0d
17039494[0x1040086]: device_info: 00 00 08 00 00 00 00 01 00 01 01 00 00 00 00 01
17039494[0x1040086]: disc inserted..
17039494[0x1040086]: config: 00 00 00 0c 00 00 00 10 ff 41 01 04 00 00 00 00
17039494[0x1040086]: config: 00 00 00 00 00 00 00 00 00 00 00 00 00 00 00 00
17039494[0x1040086]: config: 00 00 00 00 00 00 00 00 00 00 00 00 00 00 00 00
17039494[0x1040086]: config: 00 00 00 00 00 00 00 00 00 00 00 00 00 00 00 00
17039494[0x1040086]: device_info: 75 6e 6e 61 6d 65 5c 10 80 00 00 00 00 53 a0 00
17039494[0x1040086]: device_info: 80 00 00 00 10 13 de 70 80 00 00 00 00 5a b0 00
17039494[0x1040086]: device_info: 00 00 00 00 00 00 00 00 00 00 00 00 00 18 0d 98
17039494[0x1040086]: device_info: 00 00 08 00 00 00 00 01 00 01 01 00 00 00 00 01
17039494[0x1040086]: Album Title: Richard Wagner: Tannhuser
17039494[0x1040086]: Album Artist: Rundfunkchor Berlin, Rundfunk-Sinfonieorchester Be
17039494[0x1040086]: Disc Version: 01.20
17039494[0x1040086]: config: 00 00 00 0c 00 00 00 10 ff 41 01 04 00 00 00 00
17039494[0x1040086]: config: 00 00 00 00 00 00 00 00 00 00 00 00 00 00 00 00
17039494[0x1040086]: config: 00 00 00 00 00 00 00 00 00 00 00 00 00 00 00 00
17039494[0x1040086]: config: 00 00 00 00 00 00 00 00 00 00 00 00 00 00 00 00
17039494[0x1040086]: device_info: 75 6e 6e 61 6d 65 5c 10 80 00 00 00 00 53 a0 00
17039494[0x1040086]: device_info: 80 00 00 00 10 13 de 70 80 00 00 00 00 5a b0 00
17039494[0x1040086]: device_info: 00 00 00 00 00 00 00 00 00 00 00 00 00 18 0d 98
17039494[0x1040086]: device_info: 00 00 08 00 00 00 00 01 00 01 01 00 00 00 00 01
17039494[0x1040086]: succeeded. raw_spu number is 0
17039494[0x1040086]: succeeded. entry d0
17039494[0x1040086]: Establishing the interrupt tag on the interrupt PPU thread.
17039494[0x1040086]: ioctl_report_key1[45023901] 0
17039494[0x1040086]: sac_exec_generate_key 0 c9 0
17039494[0x1040086]: ioctl_send_key[2] c9 0
17039494[0x1040086]: ioctl_report_key[2] c8 0
17039494[0x1040086]: sac_exec_validate_key_1[0]
17039494[0x1040086]: sac_exec_generate_key_2[ae] 0
17039494[0x1040086]: ioctl_send_key[3] ae 0
17039494[0x1040086]: ioctl_report_key[3] b0 0
17039494[0x1040086]: sac_exec_validate_key_2[0]
17039494[0x1040086]: ioctl_report_key[4] 30 0
17039494[0x1040086]: sac_exec_validate_key_3[0]
17039494[0x1040086]: ioctl_report_finish [0xff] 0
17039494[0x1040086]: Queuing raw: /dev_usb003/Rundfunkchor Berlin, Rundfunk-Sinfonieorchester Berlin, con - Richard Wagner Tannhäuser.iso, start_lsn: 0, length_lsn: 1576344

16908361[0x1020049]: SACD-Ripper Version 0.36
16908361[0x1020049]: config: 00 00 00 0c 00 00 00 00 ff 41 00 04 00 00 00 00
16908361[0x1020049]: config: 00 00 00 00 00 00 00 00 00 00 00 00 00 00 00 00
16908361[0x1020049]: config: 00 00 00 00 00 00 00 00 00 00 00 00 00 00 00 00
16908361[0x1020049]: config: 00 00 00 00 00 00 00 00 00 00 00 00 00 00 00 00
16908361[0x1020049]: device_info: 75 6e 6e 61 6d 65 5c 10 80 00 00 00 00 5d 50 00
16908361[0x1020049]: device_info: 80 00 00 00 10 12 9e 70 80 00 00 00 00 57 e8 00
16908361[0x1020049]: device_info: 00 00 00 00 00 00 00 00 00 00 00 00 7f ff ff ff
16908361[0x1020049]: device_info: 00 00 08 00 00 00 00 01 00 01 01 00 00 00 00 01
16908361[0x1020049]: disc inserted..
16908361[0x1020049]: config: 00 00 00 0c 00 00 00 10 ff 41 01 04 00 00 00 00
16908361[0x1020049]: config: 00 00 00 00 00 00 00 00 00 00 00 00 00 00 00 00
16908361[0x1020049]: config: 00 00 00 00 00 00 00 00 00 00 00 00 00 00 00 00
16908361[0x1020049]: config: 00 00 00 00 00 00 00 00 00 00 00 00 00 00 00 00
16908361[0x1020049]: device_info: 75 6e 6e 61 6d 65 5c 10 80 00 00 00 00 5d 50 00
16908361[0x1020049]: device_info: 80 00 00 00 10 12 9e 70 80 00 00 00 00 57 e8 00
16908361[0x1020049]: device_info: 00 00 00 00 00 00 00 00 00 00 00 00 00 12 3f e6
16908361[0x1020049]: device_info: 00 00 08 00 00 00 00 01 00 01 01 00 00 00 00 01
16908361[0x1020049]: Album Title: Richard Wagner: Tannhuser
16908361[0x1020049]: Album Artist: Rundfunkchor Berlin, Rundfunk-Sinfonieorchester Be
16908361[0x1020049]: Disc Version: 01.20
16908361[0x1020049]: config: 00 00 00 0c 00 00 00 10 ff 41 01 04 00 00 00 00
16908361[0x1020049]: config: 00 00 00 00 00 00 00 00 00 00 00 00 00 00 00 00
16908361[0x1020049]: config: 00 00 00 00 00 00 00 00 00 00 00 00 00 00 00 00
16908361[0x1020049]: config: 00 00 00 00 00 00 00 00 00 00 00 00 00 00 00 00
16908361[0x1020049]: device_info: 75 6e 6e 61 6d 65 5c 10 80 00 00 00 00 5d 50 00
16908361[0x1020049]: device_info: 80 00 00 00 10 12 9e 70 80 00 00 00 00 57 e8 00
16908361[0x1020049]: device_info: 00 00 00 00 00 00 00 00 00 00 00 00 00 12 3f e6
16908361[0x1020049]: device_info: 00 00 08 00 00 00 00 01 00 01 01 00 00 00 00 01
16908361[0x1020049]: succeeded. raw_spu number is 0
16908361[0x1020049]: succeeded. entry d0
16908361[0x1020049]: Establishing the interrupt tag on the interrupt PPU thread.
16908361[0x1020049]: ioctl_report_key1[45023901] 0
16908361[0x1020049]: sac_exec_generate_key 0 c9 0
16908361[0x1020049]: ioctl_send_key[2] c9 0
16908361[0x1020049]: ioctl_report_key[2] c8 0
16908361[0x1020049]: sac_exec_validate_key_1[0]
16908361[0x1020049]: sac_exec_generate_key_2[ae] 0
16908361[0x1020049]: ioctl_send_key[3] ae 0
16908361[0x1020049]: ioctl_report_key[3] b0 0
16908361[0x1020049]: sac_exec_validate_key_2[0]
16908361[0x1020049]: ioctl_report_key[4] 30 0
16908361[0x1020049]: sac_exec_validate_key_3[0]
16908361[0x1020049]: ioctl_report_finish [0xff] 0
16908361[0x1020049]: Queuing raw: /dev_usb002/Rundfunkchor Berlin, Rundfunk-Sinfonieorchester Berlin, con - Richard Wagner Tannhäuser.iso, start_lsn: 0, length_lsn: 1196006

Rundfunkchor Berlin, Rundfunk-Sinfonieorchester Berlin, Conducted By Marek Janowski - [2012] Richard Wagner [2.0] (SACD[PS3] - 24bit88.2kHz)
======================================================================================
SACD[PS3]ISO to flac conversion using SACD_Conversion_script version 0.5

Track list
–––––

01 Act 1: Overture And Scene 1: Der Venusberg 18:01.96
02 Act 1: Scene 2: Geliebter Sag Wo Weilt Dein Sinn? 03:53.88
03 Act 1: Scene 2: Dir T÷Ne Lob 05:27.57
04 Act 1: Scene 2: Geliebter Komm 03:05.95
05 Act 1: Scene 2: Stets Soll Nur Dir Mein Lied Ert÷Nen 01:42.08
06 Act 1: Scene 2: Zieh Hin, Wahnsinniger 03:17.51
07 Act 1: Scene 3: Frau Holda Kam Aus Dem Berg Hervor 05:22.48
08 Act 1: Scene 3: Zu Dir Wall Ich, Mein Jesus Christ 03:22.32
09 Act 1: Scene 4: Wer Ist Der Dort In Br³Nstigem Gebete? 04:50.33
10 Act 1: Scene 4: Als Du In K³Hnem Sange Uns Bestrittest 06:05.32

Technical Details
––––––––-

01) ISO image created using sacd-ripper for PS3

02) Edited Master Dff file extracted using SACD_Extract

03) Edited Master Dff file analysed using foobar + foo_input_sacd and DR Meter plugins to find peak track(s)

04) Dff files for loudest tracks extracted from the ISO using SACD_Extract and converted using Weiss Saracon 1.61-27 at 24bit/88.2kHz with -6.00dB gain

05) Non-clipping gain calculated using SoX

06) Final pass conversion using Weiss Saracon 1.61-27 at 24bit/88.2kHz with 4.72dB gain as calculated above

07) Final pass PCM file split into individual tracks (discarding first 41 samples) using track lengths calculated from cue file generated by SACD_Extract

08) Spikes at beginning of first/end of last tracks eliminated by deleting 24 samples and replacing with the adjacent 24 samples using SoX to give the correct track length

09) Finalised tracks converted to flac [level 8] and tagged using tag.exe

10) Dynamic Range measured using Foobar DR Meter plugin

foobar2000 1.1.11 / Dynamic Range Meter 1.1.1
log date: 2013-09-23 14:02:58

––––––––––––––––––––––––––––––––––––––––
Analyzed: Rundfunkchor Berlin, Rundfunk-Sinfonieorchester Berlin, Conducted By Marek Janowski / Richard Wagner
––––––––––––––––––––––––––––––––––––––––

DR Peak RMS Duration Track
––––––––––––––––––––––––––––––––––––––––
DR14 -1.24 dB -20.76 dB 18:02 01-Act 1: Overture And Scene 1: Der Venusberg
DR14 -6.10 dB -25.05 dB 3:54 02-Act 1: Scene 2: Geliebter Sag Wo Weilt Dein Sinn?
DR15 -0.01 dB -22.99 dB 5:28 03-Act 1: Scene 2: Dir T÷Ne Lob
DR14 -4.25 dB -26.20 dB 3:06 04-Act 1: Scene 2: Geliebter Komm
DR13 -5.79 dB -22.57 dB 1:42 05-Act 1: Scene 2: Stets Soll Nur Dir Mein Lied Ert÷Nen
DR13 -0.58 dB -18.86 dB 3:18 06-Act 1: Scene 2: Zieh Hin, Wahnsinniger
DR19 -2.62 dB -29.52 dB 5:22 07-Act 1: Scene 3: Frau Holda Kam Aus Dem Berg Hervor
DR13 -12.07 dB -32.69 dB 3:22 08-Act 1: Scene 3: Zu Dir Wall Ich, Mein Jesus Christ
DR14 -4.20 dB -24.28 dB 4:50 09-Act 1: Scene 4: Wer Ist Der Dort In Br³Nstigem Gebete?
DR14 -1.33 dB -21.43 dB 6:05 10-Act 1: Scene 4: Als Du In K³Hnem Sange Uns Bestrittest
––––––––––––––––––––––––––––––––––––––––

Number of tracks: 10
Official DR value: DR14

Samplerate: 88200 Hz
Channels: 2
Bits per sample: 24
Bitrate: 2363 kbps
Codec: FLAC
================================================================================

Rundfunkchor Berlin, Rundfunk-Sinfonieorchester Berlin, Conducted By Marek Janowski - [2012] Richard Wagner [2.0] (SACD[PS3] - 24bit88.2kHz)
======================================================================================
SACD[PS3]ISO to flac conversion using SACD_Conversion_script version 0.5

Track list
–––––

01 Act 2: Introduction And Scene 1: Dich Teure Halle 04:50.17
02 Act 2: Scene 2: Dort Ist Sie; Nahe Dich Ihr Ungest÷Rt 06:57.88
03 Act 2: Scene 2: Den Gott Der Liebe Sollst Du Preisen 03:40.33
04 Act 2: Scene 3: Dich Treff Ich Hier In Dieser Halle 03:50.04
05 Act 2: Scene 4: Freudig Begr³¯En Wir Die Edle Halle 07:17.16
06 Act 2: Scene 4: Gar Viel Und Sch÷N Ward Hier In Dieser Halle 05:25.11
07 Act 2: Scene 4: Der Sõngerkrieg 05:13.76
08 Act 2: Scene 4: Auch Ich Darf Mich So Gl³Cklich Nennen 03:26.60
09 Act 2: Scene 4: O Walter, Der Du Also Sangest 04:32.44
10 Act 2: Scene 4: Dir, G÷Ttin Der Liebe, Soll Mein Lied Ert÷Nen 01:36.03
11 Act 2: Scene 4: Was H÷R' Ich? 02:07.43
12 Act 2: Scene 4: Der Ungl³Cksel'ge 03:17.81
13 Act 2: Scene 4: Weh 05:27.17
14 Act 2: Scene 4: Ein Furchtbares Verbrechen Ward Begangen 02:08.03
15 Act 2: Scene 4: Versammelt Sind Aus Meinen Landen 05:23.07

Technical Details
––––––––-

01) ISO image created using sacd-ripper for PS3

02) Edited Master Dff file extracted using SACD_Extract

03) Edited Master Dff file analysed using foobar + foo_input_sacd and DR Meter plugins to find peak track(s)

04) Dff files for loudest tracks extracted from the ISO using SACD_Extract and converted using Weiss Saracon 1.61-27 at 24bit/88.2kHz with -6.00dB gain

05) Non-clipping gain calculated using SoX

06) Final pass conversion using Weiss Saracon 1.61-27 at 24bit/88.2kHz with 4.69dB gain as calculated above

07) Final pass PCM file split into individual tracks (discarding first 41 samples) using track lengths calculated from cue file generated by SACD_Extract

08) Spikes at beginning of first/end of last tracks eliminated by deleting 24 samples and replacing with the adjacent 24 samples using SoX to give the correct track length

09) Finalised tracks converted to flac [level 8] and tagged using tag.exe

10) Dynamic Range measured using Foobar DR Meter plugin

foobar2000 1.1.11 / Dynamic Range Meter 1.1.1
log date: 2013-09-24 11:32:44

––––––––––––––––––––––––––––––––––––––––
Analyzed: Rundfunkchor Berlin, Rundfunk-Sinfonieorchester Berlin, Conducted By Marek Janowski / Richard Wagner
––––––––––––––––––––––––––––––––––––––––

DR Peak RMS Duration Track
––––––––––––––––––––––––––––––––––––––––
DR13 -3.23 dB -22.12 dB 4:50 01-Act 2: Introduction And Scene 1: Dich Teure Halle
DR15 -2.64 dB -25.25 dB 6:58 02-Act 2: Scene 2: Dort Ist Sie; Nahe Dich Ihr Ungest÷Rt
DR12 -1.59 dB -19.03 dB 3:40 03-Act 2: Scene 2: Den Gott Der Liebe Sollst Du Preisen
DR13 -8.84 dB -27.91 dB 3:50 04-Act 2: Scene 3: Dich Treff Ich Hier In Dieser Halle
DR14 -0.04 dB -19.46 dB 7:17 05-Act 2: Scene 4: Freudig Begr³¯En Wir Die Edle Halle
DR17 -0.04 dB -23.11 dB 5:25 06-Act 2: Scene 4: Gar Viel Und Sch÷N Ward Hier In Dieser Halle
DR16 -3.55 dB -28.55 dB 5:14 07-Act 2: Scene 4: Der Sõngerkrieg
DR14 -4.24 dB -26.48 dB 3:27 08-Act 2: Scene 4: Auch Ich Darf Mich So Gl³Cklich Nennen
DR14 -1.56 dB -24.10 dB 4:32 09-Act 2: Scene 4: O Walter, Der Du Also Sangest
DR13 -0.01 dB -17.93 dB 1:36 10-Act 2: Scene 4: Dir, G÷Ttin Der Liebe, Soll Mein Lied Ert÷Nen
DR14 -0.82 dB -20.42 dB 2:07 11-Act 2: Scene 4: Was H÷R' Ich?
DR13 -5.83 dB -26.11 dB 3:18 12-Act 2: Scene 4: Der Ungl³Cksel'ge
DR13 -0.02 dB -20.73 dB 5:27 13-Act 2: Scene 4: Weh
DR13 -5.66 dB -25.30 dB 2:08 14-Act 2: Scene 4: Ein Furchtbares Verbrechen Ward Begangen
DR13 -1.21 dB -19.97 dB 5:23 15-Act 2: Scene 4: Versammelt Sind Aus Meinen Landen
––––––––––––––––––––––––––––––––––––––––

Number of tracks: 15
Official DR value: DR14

Samplerate: 88200 Hz
Channels: 2
Bits per sample: 24
Bitrate: 2357 kbps
Codec: FLAC
================================================================================


Rundfunkchor Berlin, Rundfunk-Sinfonieorchester Berlin, Conducted By Marek Janowski - [2012] Richard Wagner [2.0] (SACD[PS3] - 24bit88.2kHz)
======================================================================================
SACD[PS3]ISO to flac conversion using SACD_Conversion_script version 0.5

Track list
–––––

01 Act 3: Introduction And Tannhõuser's Pilgrimage 07:22.88
02 Act 3: Scene 1: Wohl Wu¯T' Ich Hier Sie Im Gebet 03:12.76
03 Act 3: Scene 1: Begl³Ckt Darf Nun Dich, O Heimat 04:30.76
04 Act 3: Scene 1: Allmõcht'ge Jungfrau 09:13.00
05 Act 3: Scene 2: Wie Todesahnung 01:53.40
06 Act 3: Scene 2: O, Du Mein Holder Abendstern 02:57.25
07 Act 3: Scene 3: Ich H÷Rte Harfenschlag 04:16.15
08 Act 3: Scene 3: H÷R An Inbrunst Im Herzen 03:13.09
09 Act 3: Scene 3: Nach Rom Gelangt Ich Zur Heil'gen Stelle 03:49.23
10 Act 3: Scene 3: Da Sank Ich In Vernichtung Dumpf Darnieder 03:37.40
11 Act 3: Scene 3: Willkommen, Ungetreuer Mann 03:50.85
12 Act 3: Scene 3: Heil Der Gnade Wunder Heil 02:29.01

Technical Details
––––––––-

01) ISO image created using sacd-ripper for PS3

02) Edited Master Dff file extracted using SACD_Extract

03) Edited Master Dff file analysed using foobar + foo_input_sacd and DR Meter plugins to find peak track(s)

04) Dff files for loudest tracks extracted from the ISO using SACD_Extract and converted using Weiss Saracon 1.61-27 at 24bit/88.2kHz with -6.00dB gain

05) Non-clipping gain calculated using SoX

06) Final pass conversion using Weiss Saracon 1.61-27 at 24bit/88.2kHz with 4.48dB gain as calculated above

07) Final pass PCM file split into individual tracks (discarding first 41 samples) using track lengths calculated from cue file generated by SACD_Extract

08) Spikes at beginning of first/end of last tracks eliminated by deleting 24 samples and replacing with the adjacent 24 samples using SoX to give the correct track length

09) Finalised tracks converted to flac [level 8] and tagged using tag.exe

10) Dynamic Range measured using Foobar DR Meter plugin

foobar2000 1.1.11 / Dynamic Range Meter 1.1.1
log date: 2013-09-24 13:36:44

––––––––––––––––––––––––––––––––––––––––
Analyzed: Rundfunkchor Berlin, Rundfunk-Sinfonieorchester Berlin, Conducted By Marek Janowski / Richard Wagner
––––––––––––––––––––––––––––––––––––––––

DR Peak RMS Duration Track
––––––––––––––––––––––––––––––––––––––––
DR17 -0.01 dB -23.73 dB 7:23 01-Act 3: Introduction And Tannhõuser's Pilgrimage
DR15 -4.60 dB -27.92 dB 3:13 02-Act 3: Scene 1: Wohl Wu¯T' Ich Hier Sie Im Gebet
DR13 -0.85 dB -21.92 dB 4:31 03-Act 3: Scene 1: Begl³Ckt Darf Nun Dich, O Heimat
DR16 -6.10 dB -29.91 dB 9:13 04-Act 3: Scene 1: Allmõcht'ge Jungfrau
DR12 -17.25 dB -34.27 dB 1:53 05-Act 3: Scene 2: Wie Todesahnung
DR12 -16.73 dB -33.03 dB 2:57 06-Act 3: Scene 2: O, Du Mein Holder Abendstern
DR15 -3.37 dB -25.78 dB 4:16 07-Act 3: Scene 3: Ich H÷Rte Harfenschlag
DR12 -9.91 dB -27.12 dB 3:13 08-Act 3: Scene 3: H÷R An Inbrunst Im Herzen
DR17 -0.64 dB -23.53 dB 3:49 09-Act 3: Scene 3: Nach Rom Gelangt Ich Zur Heil'gen Stelle
DR13 -4.76 dB -22.74 dB 3:37 10-Act 3: Scene 3: Da Sank Ich In Vernichtung Dumpf Darnieder
DR13 -0.94 dB -19.66 dB 3:51 11-Act 3: Scene 3: Willkommen, Ungetreuer Mann
DR11 -0.50 dB -17.73 dB 2:29 12-Act 3: Scene 3: Heil Der Gnade Wunder Heil
––––––––––––––––––––––––––––––––––––––––

Number of tracks: 12
Official DR value: DR14

Samplerate: 88200 Hz
Channels: 2
Bits per sample: 24
Bitrate: 2306 kbps
Codec: FLAC
================================================================================


foobar2000 1.1.14a / Dynamic Range Meter 1.1.1
log date: 2013-12-15 15:57:19

––––––––––––––––––––––––––––––––––––––––
Analyzed: Rundfunkchor Berlin, Rundfunk-Sinfonieorchester Berlin, Conducted By Marek Janowski / Richard Wagner
––––––––––––––––––––––––––––––––––––––––

DR Peak RMS Duration Track
––––––––––––––––––––––––––––––––––––––––
DR14 -1.24 dB -20.76 dB 18:02 01-Act 1: Overture And Scene 1: Der Venusberg
DR14 -6.10 dB -25.05 dB 3:54 02-Act 1: Scene 2: Geliebter Sag Wo Weilt Dein Sinn?
DR15 -0.01 dB -22.99 dB 5:28 03-Act 1: Scene 2: Dir T÷Ne Lob
DR14 -4.25 dB -26.20 dB 3:06 04-Act 1: Scene 2: Geliebter Komm
DR13 -5.79 dB -22.57 dB 1:42 05-Act 1: Scene 2: Stets Soll Nur Dir Mein Lied Ert÷Nen
DR13 -0.58 dB -18.86 dB 3:18 06-Act 1: Scene 2: Zieh Hin, Wahnsinniger
DR19 -2.62 dB -29.52 dB 5:22 07-Act 1: Scene 3: Frau Holda Kam Aus Dem Berg Hervor
DR13 -12.07 dB -32.69 dB 3:22 08-Act 1: Scene 3: Zu Dir Wall Ich, Mein Jesus Christ
DR14 -4.20 dB -24.28 dB 4:50 09-Act 1: Scene 4: Wer Ist Der Dort In Br³Nstigem Gebete?
DR14 -1.33 dB -21.43 dB 6:05 10-Act 1: Scene 4: Als Du In K³Hnem Sange Uns Bestrittest
––––––––––––––––––––––––––––––––––––––––

Number of tracks: 10
Official DR value: DR14

Samplerate: 88200 Hz
Channels: 2
Bits per sample: 24
Bitrate: 2363 kbps
Codec: FLAC
================================================================================

foobar2000 1.1.14a / Dynamic Range Meter 1.1.1
log date: 2013-12-15 15:58:01

––––––––––––––––––––––––––––––––––––––––
Analyzed: Rundfunkchor Berlin, Rundfunk-Sinfonieorchester Berlin, Conducted By Marek Janowski / Richard Wagner
––––––––––––––––––––––––––––––––––––––––

DR Peak RMS Duration Track
––––––––––––––––––––––––––––––––––––––––
DR13 -3.23 dB -22.12 dB 4:50 01-Act 2: Introduction And Scene 1: Dich Teure Halle
DR15 -2.64 dB -25.25 dB 6:58 02-Act 2: Scene 2: Dort Ist Sie; Nahe Dich Ihr Ungest÷Rt
DR12 -1.59 dB -19.03 dB 3:40 03-Act 2: Scene 2: Den Gott Der Liebe Sollst Du Preisen
DR13 -8.84 dB -27.91 dB 3:50 04-Act 2: Scene 3: Dich Treff Ich Hier In Dieser Halle
DR14 -0.04 dB -19.46 dB 7:17 05-Act 2: Scene 4: Freudig Begr³¯En Wir Die Edle Halle
DR17 -0.04 dB -23.11 dB 5:25 06-Act 2: Scene 4: Gar Viel Und Sch÷N Ward Hier In Dieser Halle
DR16 -3.55 dB -28.55 dB 5:14 07-Act 2: Scene 4: Der Sõngerkrieg
DR14 -4.24 dB -26.48 dB 3:27 08-Act 2: Scene 4: Auch Ich Darf Mich So Gl³Cklich Nennen
DR14 -1.56 dB -24.10 dB 4:32 09-Act 2: Scene 4: O Walter, Der Du Also Sangest
DR13 -0.01 dB -17.93 dB 1:36 10-Act 2: Scene 4: Dir, G÷Ttin Der Liebe, Soll Mein Lied Ert÷Nen
DR14 -0.82 dB -20.42 dB 2:07 11-Act 2: Scene 4: Was H÷R' Ich?
DR13 -5.83 dB -26.11 dB 3:18 12-Act 2: Scene 4: Der Ungl³Cksel'ge
DR13 -0.02 dB -20.73 dB 5:27 13-Act 2: Scene 4: Weh
DR13 -5.66 dB -25.30 dB 2:08 14-Act 2: Scene 4: Ein Furchtbares Verbrechen Ward Begangen
DR13 -1.21 dB -19.97 dB 5:23 15-Act 2: Scene 4: Versammelt Sind Aus Meinen Landen
––––––––––––––––––––––––––––––––––––––––

Number of tracks: 15
Official DR value: DR14

Samplerate: 88200 Hz
Channels: 2
Bits per sample: 24
Bitrate: 2357 kbps
Codec: FLAC
================================================================================


foobar2000 1.1.14a / Dynamic Range Meter 1.1.1
log date: 2013-12-15 15:58:34

––––––––––––––––––––––––––––––––––––––––
Analyzed: Rundfunkchor Berlin, Rundfunk-Sinfonieorchester Berlin, Conducted By Marek Janowski / Richard Wagner
––––––––––––––––––––––––––––––––––––––––

DR Peak RMS Duration Track
––––––––––––––––––––––––––––––––––––––––
DR17 -0.01 dB -23.73 dB 7:23 01-Act 3: Introduction And Tannhõuser's Pilgrimage
DR15 -4.60 dB -27.92 dB 3:13 02-Act 3: Scene 1: Wohl Wu¯T' Ich Hier Sie Im Gebet
DR13 -0.85 dB -21.92 dB 4:31 03-Act 3: Scene 1: Begl³Ckt Darf Nun Dich, O Heimat
DR16 -6.10 dB -29.91 dB 9:13 04-Act 3: Scene 1: Allmõcht'ge Jungfrau
DR12 -17.25 dB -34.27 dB 1:53 05-Act 3: Scene 2: Wie Todesahnung
DR12 -16.73 dB -33.03 dB 2:57 06-Act 3: Scene 2: O, Du Mein Holder Abendstern
DR15 -3.37 dB -25.78 dB 4:16 07-Act 3: Scene 3: Ich H÷Rte Harfenschlag
DR12 -9.91 dB -27.12 dB 3:13 08-Act 3: Scene 3: H÷R An Inbrunst Im Herzen
DR17 -0.64 dB -23.53 dB 3:49 09-Act 3: Scene 3: Nach Rom Gelangt Ich Zur Heil'gen Stelle
DR13 -4.76 dB -22.74 dB 3:37 10-Act 3: Scene 3: Da Sank Ich In Vernichtung Dumpf Darnieder
DR13 -0.94 dB -19.66 dB 3:51 11-Act 3: Scene 3: Willkommen, Ungetreuer Mann
DR11 -0.50 dB -17.73 dB 2:29 12-Act 3: Scene 3: Heil Der Gnade Wunder Heil
––––––––––––––––––––––––––––––––––––––––

Number of tracks: 12
Official DR value: DR14

Samplerate: 88200 Hz
Channels: 2
Bits per sample: 24
Bitrate: 2306 kbps
Codec: FLAC
================================================================================



SACD Info:

Richard Wagner - Tannhäuser und der Sängerkrieg auf Wartburg WWV 70

Albert Dohmen / Robert Dean Smith / Rundfunk-Sinfonieorchester Berlin / Marek Janowski

Label: Pentatone
Catalog#: PTC 5186 405
Format: 3xHybrid-SACD, Album, Multichannel, Stereo
Country: Netherlands
Released: 2012
Genre: Classical
Style: Romantic, Opera

Tracklist:

Overture - Act I Scene 1: Naht euch dem Strande (Chorus)
Act I Scene 2: Geliebter, sag, wo weilt dein Sinn? (Venus, Tannhauser)
Act I Scene 2: Dir tone Lob! (Tannhauser, Venus)
Act I Scene 2: Geliebter, komm! (Venus, Chorus)
Act I Scene 2: Stets soll nur dir, nur dir mein Lied ertonen (Tannhauser)
Act I Scene 2: Zieh hin, Wahnsinniger (Venus, Tannhauser)
Act I Scene 3: Frau Holda kam aus dem Berg hervor (Hirt)
Act I Scene 3: Zu dir wall' ich, mein Jesus Christ (Chorus, Hirt, Tannhauser)
Act I Scene 4: Wer ist der dort im brunstigen Gebete? (Landgraf, Walther, Biterolf, Wolfram, Heinrich, Reinmar, Tannhauser)
Act I Scene 4: Als du in kuhnem Sange uns bestrittest (Wolfram, Walther, Heinrich, Biterolf, Reinmar, Landgraf, Tannhauser)
Act II Scene 1: Dich, teure Halle (Elisabeth)
Act II Scene 2: Dort ist sie; nahe dich ihr ungestort! (Wolfram, Tannhauser, Elisabeth)
Act II Scene 2: Den Gott der Liebe sollst du preisen (Tannhauser, Elisabeth, Wolfram)
Act II Scene 3: Dich treff 'ich hier in dieser Halle (Landgraf, Elisabeth)
Act II Scene 4: Freudig begrussen wir die edle Halle (Chorus)
Act II Scene 4: Gar viel und schon ward hier in dieser Halle (Landgraf)
Act II Scene 4: Blick' ich umher in diesem edlen Kreise (Wolfram, Chorus)
Act II Scene 4: Auch ich darf mich so glucklich nennen (Tannhauser, Walther, Chorus)
Act II Scene 4: O Walther, der du also sangest (Tannhauser, Biterolf, Chorus, Landgraf, Wolfram)
Act II Scene 4: Dir, Gottin der Liebe, soll mein Lied ertonen (Tannhauser, Walther, Heinrich, Wolfram, Biterolf, Reinmar, Landgraf, Chorus, Edelknaben, Elisabeth)
Act II Scene 4: Was hor' ich? (Walther, Biterolf, Reinmar, Heinrich, Wolfram, Landgraf, Chorus, Elisabeth)
Act II Scene 4: Der Unglucksel'ge (Elisabeth)
Act II Scene 4: Weh! Weh mir Unglucksel'gem! (Tannhauser, Walther, Heinrich, Wolfram, Biterolf, Reinmar, Landgraf, Chorus)
Act II Scene 4: Ein furchtbares Verbrechen ward begangen (Landgraf)
Act II Scene 4: Versammelt sind aus meinen Landen (Landgraf, Walther, Heinrich, Wolfram, Biterolf, Reinmar, Chorus)
Act III: Prelude
Act III Scene 1: Wohl wusst' ich hier sie im Gebet (Wolfram, Elisabeth)
Act III Scene 1: Begluckt darf nun dich, o Heimat (Chorus, Elisabeth)
Act III Scene 1: Allmacht'ge Jungfrau, hor mein Flehen! (Elisabeth, Wolfram)
Act III Scene 2: Wie Todesahnung (Wolfram)
Act III Scene 2: O du, mein holder Abendstern (Wolfram)
Act III Scene 3: Ich horte Harfenschlag (Tannhauser, Wolfram)
Act III Scene 3: Hor an! Inbrunst im Herzen (Tannhauser)
Act III Scene 3: Nach Rom gelangt' ich so zur heil'gen Stelle (Tannhauser)
Act III Scene 3: Da sank ich in Vernichtung dumpf darnieder (Tannhauser, Wolfram)
Act III Scene 3: Willkommen, ungetreuer Mann! (Venus, Tannhauser, Wolfram, Chorus)
Act III Scene 3: Heil! Heil! Der Gnade Wunder Heil! (Chorus, Walther, Heinrich, Wolfram, Biterolf, Reinmar, Landgraf)

Live-Mitschnitt der konzertanten Aufführung vom 5. Mai 2012 in der Philharmonie Berlin.

Albert Dohmen (Landgraf Hermann)
Robert Dean Smith (Tannhäuser)
Nina Stemme (Elisabeth)
Marina Prudenskaya (Venus)
Peter Sonn (Walther von der Vogelweide)
Wilhelm Schwinghammer (Biterolf)
Christian Gerhaher (Wolfram von Eschenbach)
Michael McCown (Heinrich der Schreiber)
Martin Snell (Reinmar von Zweter)
Bianca Reim (Ein junger Hirt)
Sabine Puhlmann, Isabelle Voßkühler,
Roksolana Chraniuk, Bettina Pieck (Edelknaben)

Rundfunkchor Berlin | Nicolas Fink Choreinstudierung
Rundfunk-Sinfonieorchester Berlin
Marek Janowski Dirigent

This is the 6th instalment of PentaTone’s successful Wagner Edition. It is the first time in the recording history that a label records all major Wagner opera’s with the same orchestra, choir and conductor. This makes the PentaTone Wagner Edition a great collector’s item. After this release follows Der Ring des Nibelungen. The 4 opera’s of the “The Ring” will all be released in the course of 2013, The WAGNER YEAR (Celebrating the 200th anniversary of his birth in 1813)

All operas are recorded live in the Philharmonie in Berlin. The first five recordings were awarded with “Editor’s Choice” (Gramophone), Recording of the Month and Opera Choice of the Month (BBC Music Magazine), CD of the week (Sunday Times).

Based on the reviews of the concert we expect high scores for the Tannhäuser recording as well. prestoclassical

“Janowski keeps the score, which has some longueurs, moving and builds up impressive climaxes in each act…Prudenskaya, though her enunciation is vague, is adequately sexy…Stemme sound[s] too heroic for the part…but she makes an impression. All told I would say that this is the best recording since that made in Bayreuth in 1962.” BBC Music Magazine

________________

ISO 1 PART

=1= | =2= | =3=
=4= | =5= | =6=

ISO 2 PART

=1= | =2= | =3= | =4=
=5= | =6= | =7=

ISO 3 PART

=1= | =2= | =3=
=4= | =5=

FLAC 1 PART

=1= | =2= | =3=

FLAC 2 PART

=1= | =2= | =3=

FLAC 3 PART

=1= | =2= | =3=

Artwork PART

=1= | =2= | =3=

________________