Subcategories

Waylon Jennings, Willie Nelson, Jessi Colter, Tompall Glaser - Wanted! The Outlaws (1976/2014) [24/96]

Posted By: HDV
Waylon Jennings, Willie Nelson, Jessi Colter, Tompall Glaser - Wanted! The Outlaws (1976/2014) [24/96]

Waylon Jennings, Willie Nelson, Jessi Colter, Tompall Glaser - Wanted! The Outlaws (1976/2014)
FLAC (tracks) 24-bit/96 kHz | Time - 33:28 minutes | 730 MB
Studio Master, Official Digital Download | Artwork: Front cover

Released to capitalize on the new outlaw country movement, Wanted! The Outlaws earned its place in music history by becoming the first country album to sell a million copies.

The term "outlaw" had been bandied about after Waylon Jennings' 1972 hit "Ladies Love Outlaws," but it didn't permanently gel until the release of the album Wanted! The Outlaws in 1976. The songs in this packaged product weren't new – the album contained previously released material by Jennings, Willie Nelson, Tompall Glaser, and Jennings' wife Jessi Colter (who had hit the charts a year earlier with "I'm Not Lisa"). But it marked the industry's recognition of the changing times, and as the center point of a campaign to publicize Nashville's new "progressive" breed, it worked like a charm. It quickly became the first country album to sell more than a million copies, and it boosted the careers of all involved.

Tracklist:

01 - Waylon Jennings - My Heroes Have Always Been Cowboys
02 - Waylon Jennings - Honky Tonk Heroes (Like Me)
03 - Jessi Colter - I'm Looking for Blue Eyes
04 - Jessi Colter - You Mean to Say
05 - Waylon Jennings, Jessi Colter - Suspicious Minds
06 - Waylon Jennings, Willie Nelson - A Good Hearted Woman
07 - Waylon Jennings, Willie Nelson - Heaven and Hell
08 - Willie Nelson - Me and Paul
09 - Willie Nelson - Yesterday's Wine
10 - Tompall Glaser - T for Texas
11 - Tompall Glaser - Put Another Log On The Fire (Male Chauvinist National Anthem)

Analyzed: Jessi Colter / Wanted! The Outlaws (1-2)
Tompall Glaser / Wanted! The Outlaws (3-4)
Waylon Jennings, Jessi Colter / Wanted! The Outlaws (5)
Waylon Jennings, Willie Nelson / Wanted! The Outlaws (6-7)
Waylon Jennings / Wanted! The Outlaws (8-9)
Willie Nelson / Wanted! The Outlaws (10-11)
––––––––––––––––––––––––––––––––––––––––

DR Peak RMS Duration Track
––––––––––––––––––––––––––––––––––––––––
DR12 -0.74 dB -16.40 dB 2:18 03-I'm Looking for Blue Eyes
DR11 -1.33 dB -15.96 dB 2:32 04-You Mean to Say
DR12 -0.82 dB -14.32 dB 4:15 10-T for Texas
DR12 -0.52 dB -14.69 dB 2:21 11-Put Another Log On The Fire (Male Chauvinist National Anthem)
DR11 -0.01 dB -14.85 dB 4:00 05-Suspicious Minds
DR10 -0.29 dB -13.40 dB 3:01 06-A Good Hearted Woman
DR14 -1.29 dB -18.42 dB 1:40 07-Heaven and Hell
DR15 0.00 dB -16.41 dB 2:51 01-My Heroes Have Always Been Cowboys
DR12 -0.01 dB -14.31 dB 3:29 02-Honky Tonk Heroes (Like Me)
DR12 -0.48 dB -14.38 dB 3:49 08-Me and Paul
DR12 -0.46 dB -15.90 dB 3:10 09-Yesterday's Wine
––––––––––––––––––––––––––––––––––––––––

Number of tracks: 11
Official DR value: DR12

Samplerate: 96000 Hz
Channels: 2
Bits per sample: 24
Bitrate: 2815 kbps
Codec: FLAC
================================================================================


Thanks to the Original customer!