Wayne Shorter - Native Dancer (1974) [Japanese Reissue 2000] PS3 ISO + Hi-Res FLAC

Posted By: HDAtall
Wayne Shorter - Native Dancer (1974) [Japanese Reissue 2000] PS3 ISO + Hi-Res FLAC

Wayne Shorter - Native Dancer (1974) [Japanese Reissue 2000]
PS3 Rip | SACD ISO | DSD64 2.0 > 1-bit/2.8224 MHz | 43:26 minutes | Scans NOT included | 1,75 GB
or FLAC(converted with foobar2000 to tracks) 24bit/88,2 kHz | Scans NOT included | 894 MB

Some jazz purists would say that Wayne Shorter went downhill in the 1970s, when he passionately embraced electric jazz-fusion and co-led the innovative Weather Report with Joe Zawinul. But remember: Those are the same people who also claim that Miles Davis' stunning Bitches Brew has no value and that Chick Corea's visionary Return to Forever was a complete waste – so it's hard to take their opinions seriously. The fact is that the 1970s were a highly productive time for Shorter, and it wasn't until the 1980s that the tenor and soprano saxophonist really declined creatively. One of Shorter's best-selling albums from the 1970s was Native Dancer, a Brazilian-oriented jazz-fusion masterpiece that boasts Herbie Hancock on acoustic piano and electric keyboards, and employs such Brazilian talent as singer Milton Nascimento (a superstar in Brazil) and percussionist Airto Moreira. Everything on this melodic, consistently lyrical effort is a jewel, and that includes Hancock's "Joanna's Theme" as well as pieces by Nascimento ("From the Lonely Afternoons," "Ponta de Areia," "Tarde," "Lilia," and "Miracle of the Fishes") and by Shorter himself ("Ana Maria," "Beauty and the Beast," and "Diana"). Reissued on SACD, Native Dancer is clearly among Shorter's most essential albums.

Tracklist:

01. Ponta de Areia
02. Beauty and the Beast
03. Tarde
04. Miracle of the Fishes
05. Diana
06. From the Lonely Afternoons
07. Ana Maria
08. Lilia
09. Joanna's Theme

Recorded 9/12/1974 at Village Recorders, Los Angeles.

Personnel
Wayne Shorter - Saxophone, Soprano & Tenor Sax
Milton Nascimento - Guitar, Vocals
David Amaro - Guitar
Jay Graydon - Guitar
Herbie Hancock - Piano, Keyboards
Wagner Tiso - Organ, Piano
Dave McDaniel - Bass
Roberto Silva - drums
Airto Moreira - percussion

foobar2000 1.3.8 / Dynamic Range Meter 1.1.1

––––––––––––––––––––––––––––––––––––––––
Analyzed: ? / ?
––––––––––––––––––––––––––––––––––––––––

DR Peak RMS Duration Track
––––––––––––––––––––––––––––––––––––––––
DR12 -5.75 dB -21.03 dB 5:15 01-PONTA DE AREIA
DR12 -4.83 dB -19.09 dB 5:05 02-BEAUTY AND THE BEAST
DR11 -6.06 dB -20.59 dB 5:46 03-TARDE
DR10 -4.34 dB -17.43 dB 4:47 04-MIRACLE OF THE FISHES
DR11 -7.88 dB -22.88 dB 3:00 05-DIANA
DR11 -5.27 dB -18.08 dB 3:12 06-FROM THE LONELY AFTERNOONS
DR11 -4.94 dB -19.22 dB 5:05 07-ANA MARIA
DR12 -4.65 dB -19.35 dB 6:58 08-LILIA
DR9 -6.20 dB -21.90 dB 4:19 09-JOANNA'S THEME
––––––––––––––––––––––––––––––––––––––––

Number of tracks: 9
Official DR value: DR11

Samplerate: 2822400 Hz / PCM Samplerate: 88200 Hz
Channels: 2
Bits per sample: 24
Bitrate: 5645 kbps
Codec: DSD64


Thanks to ManWhoCan!
Uncompressed SACD ISO size > 2,07 GB
SACD ISO 1
SACD ISO 2
FLAC