Weather Report - Heavy Weather (1977) [Audio Fidelity 2017] PS3 ISO + Hi-Res FLAC

Posted By: HDAtall
Weather Report - Heavy Weather (1977) [Audio Fidelity 2017] PS3 ISO + Hi-Res FLAC

Weather Report - Heavy Weather (1977) [Audio Fidelity 2017]
PS3 Rip | SACD ISO | DSD64 2.0 > 1-bit/2.8224 MHz | 37:52 minutes | Scans included | 1,03 GB
or FLAC(converted with foobar2000 to tracks) 24bit/88,2 kHz | Full Scans included | 821 MB
Mastered by Kevin Gray | Audio Fidelity # AFZ-258

Weather Report were a jazz supergroup formed in 1970, best known outside the jazz world for their hit "Birdland". Heavy Weather is Weather Report’s 7th album, released in 1977 through Columbia Records. It is the band’s 2nd album with bassist Jaco Pastorius. On Black Market, Pastorius played on 2 of the 7 tracks, but here he is a full member of the band. It is on the short list of LP's considered to be the greatest of all Jazz-Fusion recordings.

Weather Report's biggest-selling album is that ideal thing, a popular and artistic success – and for the same reasons. For one thing, Joe Zawinul revealed an unexpectedly potent commercial streak for the first time since his Cannonball Adderley days, contributing what has become a perennial hit, "Birdland." Indeed, "Birdland" is a remarkable bit of record-making, a unified, ever-developing piece of music that evokes, without in any way imitating, a joyous evening on 52nd St. with a big band. The other factor is the full emergence of Jaco Pastorius as a co-leader; his dancing, staccato bass lifting itself out of the bass range as a third melodic voice, completely dominating his own ingenious "Teen Town" (where he also plays drums!). By now, Zawinul has become WR's de facto commander in the studio; his colorful synthesizers dictate the textures, his conceptions are carefully planned, with little of the freewheeling improvisation of only five years before. Wayne Shorter's saxophones are now reticent, if always eloquent, beams of light in Zawinul's general scheme while Alex Acuña shifts ably over to the drums and Manolo Badrena handles the percussion. Released just as the jazz-rock movement began to run out of steam, this landmark album proved that there was plenty of creative life left in the idiom.

Tracklist:

01. Birdland
02. A Remark You Made
03. Teen Town
04. Harlequin
05. Rumba Mama
06. Palladium
07. The Juggler
08. Havona

Personnel
Joe Zawinul - piano, synthesizer, vocals, melodica, guitar, tabla
Wayne Shorter - soprano and tenor saxophone
Jaco Pastorius - fretless guitar, mandocello, vocals, drums, steel drums
Alex Acuna - drums, congas, tom-toms, handclaps
Manolo Badrena - tambourine, congas, vocals, timbales, percussion

Mastered for this SACD by Kevin Gray at Cohearent Audio.
Authoring by Stephen Marsh at Marsh Mastering.

foobar2000 1.3.16 / Dynamic Range Meter 1.1.1

––––––––––––––––––––––––––––––––––––––––
Analyzed: Weather Report / Heavy Weather
––––––––––––––––––––––––––––––––––––––––

DR Peak RMS Duration Track
––––––––––––––––––––––––––––––––––––––––
DR14 -7.19 dB -25.16 dB 6:00 01-Birdland
DR12 -7.67 dB -23.83 dB 6:54 02-A Remark You Made
DR15 -7.21 dB -25.71 dB 2:52 03-Teen Town
DR13 -8.90 dB -27.59 dB 4:00 04-Harlequin
DR14 -9.59 dB -30.33 dB 2:12 05-Rumba Mama
DR10 -8.78 dB -24.65 dB 4:47 06-Palladium
DR12 -10.51 dB -29.02 dB 5:04 07-The Juggler
DR15 -8.28 dB -26.94 dB 6:04 08-Havona
––––––––––––––––––––––––––––––––––––––––

Number of tracks: 8
Official DR value: DR13

Samplerate: 2822400 Hz / PCM Samplerate: 88200 Hz
Channels: 2
Bits per sample: 1
Bitrate: 5645 kbps
Codec: DSD64


Thanks to PS³SACD!
Uncompressed SACD ISO size > 1,51 GB
>