Wes Montgomery - In Paris: The Definitive ORTF Recording (2018) [Official Digital Download 24/192]

Posted By: El Misha
Wes Montgomery - In Paris: The Definitive ORTF Recording (2018) [Official Digital Download 24/192]

Wes Montgomery - In Paris: The Definitive ORTF Recording (2018)
FLAC (tracks) 24-bit/192 kHz | Time - 01:41:45 | 3.53 GB
Studio Master, Official Digital Download | Artwork: Front cover+digital booklet

In Paris: The Definitive ORTF Recording captures jazz guitar legend Wes Montgomery on his only tour of Europe on the night of March 27, 1965 at the Théâtre des Champs-Élysées in Paris, France. The first official release of this legendary concert, In Paris is being released in partnership with the Institutnational de l'audiovisuel (INA) with remastered, high-resolution audio transferred directly from the original tape reels.



Tracklist:

01. Meet Me in St. Louis: The Girl Next Door
02. Here's That Rainy Day: Carnival in Flanders: Here's That Rainy Day
03. Jingles
04. To Wane
05. Full House
06. 'Round Midnight (take 1): Round Midnight
07. Blue 'n Boogie - West Coast Blues
08. Twisted Blues
09. Four on Six
10. Impressions

foobar2000 1.3.9 / Dynamic Range Meter 1.1.1
log date: 2019-08-21 11:00:58

––––––––––––––––––––––––––––––––––––––––
Analyzed: Wes Montgomery / In Paris - The Definitive ORTF Recording (Remastered)
––––––––––––––––––––––––––––––––––––––––

DR Peak RMS Duration Track
––––––––––––––––––––––––––––––––––––––––
DR11 -2.82 dB -17.90 dB 6:37 01-Meet Me in St. Louis: The Girl Next Door
DR11 -1.85 dB -16.39 dB 8:26 02-Here's That Rainy Day: Carnival in Flanders: Here's That Rainy Day
DR11 -3.20 dB -17.26 dB 12:26 03-Jingles
DR11 -2.86 dB -16.75 dB 11:03 04-To Wane
DR11 -3.70 dB -16.67 dB 10:42 05-Full House
DR12 -2.96 dB -17.86 dB 9:17 06-'Round Midnight (take 1): Round Midnight
DR11 -3.69 dB -17.52 dB 13:06 07-Blue 'n Boogie - West Coast Blues
DR12 -2.66 dB -17.48 dB 13:30 08-Twisted Blues
DR12 -3.83 dB -17.67 dB 6:26 09-Four on Six
DR11 -3.78 dB -16.72 dB 10:12 10-Impressions
––––––––––––––––––––––––––––––––––––––––

Number of tracks: 10
Official DR value: DR11

Samplerate: 192000 Hz
Channels: 2
Bits per sample: 24
Bitrate: 5109 kbps
Codec: FLAC
================================================================================



Thanks to the Original customer!