The Who - My Generation (1965) [Japanese Limited SHM-SACD] PS3 ISO + Hi-Res FLAC {RE-UP}

Posted By: HDAtall
The Who - My Generation (1965) [Japanese Limited SHM-SACD] PS3 ISO + Hi-Res FLAC {RE-UP}

The Who - My Generation (1965) [Japanese Limited SHM-SACD 2011 # UIGY-9059]
PS3 Rip | SACD ISO | DSD64 2.0 > 1-bit/2.8224 MHz | 78:59 minutes | Full Scans included | 2,38 GB
or FLAC 2.0 Stereo (converted with foobar2000 to tracks) 24bit/88,2 kHz | Scans included | 1,45 GB

Reissue features the high-fidelity SHM-SACD format (fully compatible with standard SACD player, but it does not play on standard CD players). Contains UK original mono version, which features the 2005 96kHz/24bit mastering based on UK original master tape, and remix stereo version, which features 2003 DSD mastering based on the US master produced by MCA.

An explosive debut, and the hardest mod pop recorded by anyone. At the time of its release, it also had the most ferociously powerful guitars and drums yet captured on a rock record. Pete Townshend's exhilarating chord crunches and guitar distortions threaten to leap off the grooves on "My Generation" and "Out in the Street"; Keith Moon attacks the drums with a lightning, ruthless finesse throughout. Some "Maximum R&B" influence lingered in the two James Brown covers, but much of Townshend's original material fused Beatlesque hooks and power chords with anthemic mod lyrics, with "The Good's Gone," "Much Too Much," "La La La Lies," and especially "The Kids Are Alright" being highlights. "A Legal Matter" hinted at more ambitious lyrical concerns, and "The Ox" was instrumental mayhem that pushed the envelope of 1965 amplification with its guitar feedback and nonstop crashing drum rolls. While the execution was sometimes crude, and the songwriting not as sophisticated as it would shortly become, the Who never surpassed the pure energy level of this record.

Tracklist:

01 - Out In The Street (Mono)
02 - I Don't Mind (Mono)
03 - The Good's Gone (Mono)
04 - La-La-La Lies (Mono)
05 - Much Too Much (Mono)
06 - My Generation (Mono)
07 - The Kids Are Alright (Mono)
08 - Please, Please, Please (Mono)
09 - It's Not True (Mono)
10 - I'm A Man (Mono)
11 - A Legal Matter (Mono)
12 - The Ox (Mono)
13 - Circles (Mono)
14 - Out In The Street (Stereo)
15 - I Don't Mind (Stereo)
16 - The Good's Gone (Stereo)
17 - La-La-La Lies (Stereo)
18 - Much Too Much (Stereo)
19 - My Generation (Stereo)
20 - The Kids Are Alright (Stereo)
21 - Please, Please, Please (Stereo)
22 - It's Not True (Stereo)
23 - I'm A Man (Stereo)
24 - A Legal Matter (Stereo)
25 - The Ox (Stereo)
26 - Circles (Stereo)

MONO ALBUM >
Track 1-12: DSD transferred from 96kHz/24bit by Jon Astley at Close To The Edge Mastering, 2010
96kHz/24bit transferred from analogue master tapes by Chris Bellman at Bernie Grundman Mastering, 2005
Track 13: DSD transferred from analogue master tapes by Adam Boose at Iron Mountain Digital Studios. 2011
STEREO ALBUM >
Stereo remixes produced by Shel Talmy. Remixed at Cherokee Studios.
Remix engineer: Steve Katz. Digitally remastered by Erick Labson at Universal Mastering Studios, 2003.


Analyzed: The Who / My Generation
––––––––––––––––––––––––––––––––––––––––

DR Peak RMS Duration Track
––––––––––––––––––––––––––––––––––––––––
DR10 -4.77 dB -17.79 dB 2:33 01-Out In The Street (Mono)
DR11 -6.16 dB -18.69 dB 2:38 02-I Don't Mind (Mono)
DR10 -6.33 dB -17.66 dB 4:03 03-The Good's Gone (Mono)
DR8 -6.37 dB -16.39 dB 2:17 04-La-La-La Lies (Mono)
DR8 -7.27 dB -16.74 dB 2:48 05-Much Too Much (Mono)
DR7 -6.63 dB -15.10 dB 3:20 06-My Generation (Mono)
DR8 -6.62 dB -15.31 dB 3:07 07-The Kids Are Alright (Mono)
DR11 -6.07 dB -19.04 dB 2:47 08-Please, Please, Please (Mono)
DR8 -6.13 dB -15.88 dB 2:34 09-It's Not True (Mono)
DR12 -4.90 dB -19.18 dB 3:24 10-I'm A Man (Mono)
DR10 -6.42 dB -18.02 dB 2:50 11-A Legal Matter (Mono)
DR10 -6.48 dB -17.58 dB 3:52 12-The Ox (Mono)
DR7 -7.33 dB -15.61 dB 3:16 13-Circles (Mono)
DR11 -5.79 dB -18.92 dB 2:32 14-Out In The Street (Stereo)
DR12 -4.21 dB -19.93 dB 2:34 15-I Don't Mind (Stereo)
DR12 -4.84 dB -18.54 dB 4:00 16-The Good's Gone (Stereo)
DR12 -4.86 dB -20.06 dB 2:19 17-La-La-La Lies (Stereo)
DR11 -6.43 dB -19.64 dB 2:45 18-Much Too Much (Stereo)
DR11 -5.31 dB -18.40 dB 3:22 19-My Generation (Stereo)
DR11 -5.05 dB -17.53 dB 3:10 20-The Kids Are Alright (Stereo)
DR12 -6.20 dB -20.32 dB 2:47 21-Please, Please, Please (Stereo)
DR11 -5.55 dB -18.86 dB 2:34 22-It's Not True (Stereo)
DR13 -5.02 dB -20.90 dB 3:23 23-I'm A Man (Stereo)
DR12 -6.16 dB -20.09 dB 2:55 24-A Legal Matter (Stereo)
DR11 -4.40 dB -16.97 dB 3:58 25-The Ox (Stereo)
DR10 -5.28 dB -17.71 dB 3:13 26-Circles (Stereo)
––––––––––––––––––––––––––––––––––––––––

Number of tracks: 26
Official DR value: DR10

Samplerate: 2822400 Hz / PCM Samplerate: 88200 Hz
Channels: 2
Bits per sample: 24
Bitrate: 5645 kbps
Codec: DSD64


Thanks to PS³SACD!
Uncompressed SACD ISO size > 3,17 GB

If you want leave some comment - login at the mirror > http://old.avxhome.se/hraphile