Will & Rainbow - Over Crystal Green (2002) [Japan] SACD ISO + Hi-Res FLAC

Posted By: HDAtall
Will & Rainbow - Over Crystal Green (2002) [Japan] SACD ISO + Hi-Res FLAC

Will & Rainbow - Over Crystal Green (2002) [Japan]
SACD Rip | SACD ISO | DSD64 2.0 > 1-bit/2.8224 MHz | 53:01 minutes | Front/Rear Covers | 1,71 GB
or FLAC(converted with foobar2000 to tracks) 24bit/88,2 kHz | Front/Rear Covers | 1,14 GB

In 1976, a fusion band called Rainbow featuring pianist Will Boulware recorded an album entitled "Crystal Green", which included saxophonist Michael Brecker, trumpeter Randy Brecker, and drummer Steve Gadd. In 2002, Boulware, the Brecker brothers and Gadd-along with the late saxophonist Bob Berg and bassist Will Lee-reconvened in a New York studio to record "Over Crystal Green" under the group name Will & Rainbow. The album proves that the intervening years have clearly not diminished their rapport.

Michael Brecker leads the band through a dynamic interpretation of Bill Evans’ “Waltz for Debby,” and his brother turns in a lyrical trumpet solo on the ballad “I’ll Fly Away.” Berg and the ensemble explore inventive ways of presenting “Don’t Let Me Be Lonely Tonight,” while “Scenery” opens with a beautiful piano solo from Boulware, and then Berg delivers a swirling, rapid-fire, sometimes dizzying, performance. Over Crystal Green is a great example of deep musical connections from outstanding musicians. An impressive performance and arrangements are greatly featured in this revived super session.

Tracklist:

01. A Song For You
02. I'll Fly Away
03. Seascape
04. Appearance
05. Don't Let Me Be Lonely Tonight
06. Scenery
07. Waltz For Debby
08. Voyage
09. Bells

Produced by Yasohachi "88" Itoh. Engineered by David Baker.
DSD Recording. Recorded on January 15-16, 2002 at Avatar Studio, New York.
Mastered By Koji "C-chan" Suzuki at Sony Music Studios, Tokyo, Japan.

Personnel
Will Boulware - acoustic piano, Hammond B3 organ, synthesizer on "8"
Jon Werking - synthesizers
Peter Bernstein - guitar
Will Lee - bass
Steve Gadd - drums
Randy Brecker - trumpet on "2"
Bob Berg - tenor saxophone on "3,5,6,8,9"
Michael Brecker - tenor saxophone on "1,4,7"

foobar2000 1.3.16 / Dynamic Range Meter 1.1.1

––––––––––––––––––––––––––––––––––––––––
Analyzed: ? / ?
––––––––––––––––––––––––––––––––––––––––

DR Peak RMS Duration Track
––––––––––––––––––––––––––––––––––––––––
DR9 -3.27 dB -14.95 dB 6:30 01-A Song For You
DR11 -4.10 dB -17.78 dB 6:25 02-I'll Fly Away
DR8 -3.99 dB -14.82 dB 5:20 03-Seascape
DR9 -3.99 dB -15.30 dB 7:29 04-Appearance
DR10 -3.70 dB -16.47 dB 4:42 05-Don't Let Me Be Lonely Tonight
DR8 -3.72 dB -14.20 dB 6:16 06-Scenery
DR9 -3.97 dB -15.18 dB 6:32 07-Waltz For Debby
DR9 -3.38 dB -14.39 dB 6:15 08-Voyage
DR11 -4.41 dB -18.62 dB 3:32 09-Bells
––––––––––––––––––––––––––––––––––––––––

Number of tracks: 9
Official DR value: DR9

Samplerate: 2822400 Hz / PCM Samplerate: 88200 Hz
Channels: 2
Bits per sample: 1
Bitrate: 5645 kbps
Codec: DSD64


Thanks to jazzyman!
Uncompressed SACD ISO size > 2,12 GB
>