Wingtips - Exposure Therapy (2019) [Official Digital Download]

Posted By: El Misha
Wingtips - Exposure Therapy (2019) [Official Digital Download]

Wingtips - Exposure Therapy (2019)
FLAC (tracks) 24-bit/44.10 kHz | Time - 42:30 | 492 MB
Studio Master, Official Digital Download | Artwork: Front cover

Exposure Therapy is the debut record from exciting new goth-pop duo WINGTIPS, which recently announced a deal with Toronto-based Artoffact Records. The duo comprises Chicago-goth mainstays Vincent Segretario and Hannah Avalon, producing unforgettable music that has already captured the attention of media and festival taste-makers alike.
The new record, which finds its guitar work inherently in the vain of Disintegration-era Cure, while injecting electronic elements that would be at home on records by OMD, is a refreshing mix of synthpop, darkwave, and goth, that will appeal to fans of Cold Cave, The Twilight Sad, and Lycia.



Tracklist:

1. Eintrot (0:37)
2. Deaf Pursuit (4:28)
3. Accidental Effigies (3:53)
4. After the Storm (4:22)
5. The Eye That Follows Suit (4:29)
6. Sentinel (4:06)
7. Here and Now (5:10)
8. Ghosted (4:45)
9. Relativity (3:22)
10. Innocent Blood (7:18)

foobar2000 1.3.9 / Dynamic Range Meter 1.1.1
log date: 2019-08-23 07:45:44

––––––––––––––––––––––––––––––––––––––––
Analyzed: WINGTIPS / Exposure Therapy
––––––––––––––––––––––––––––––––––––––––

DR Peak RMS Duration Track
––––––––––––––––––––––––––––––––––––––––
DR9 -4.40 dB -15.32 dB 0:37 01-Eintrot
DR9 -1.01 dB -11.88 dB 4:28 02-Deaf Pursuit
DR9 -1.01 dB -11.24 dB 3:54 03-Accidental Effigies
DR8 -1.00 dB -11.35 dB 4:22 04-After the Storm
DR9 -1.00 dB -11.88 dB 4:29 05-The Eye That Follows Suit
DR8 -1.70 dB -11.28 dB 4:07 06-Sentinel
DR9 -1.01 dB -12.13 dB 5:10 07-Here and Now
DR9 -1.00 dB -11.21 dB 4:45 08-Ghosted
DR9 -1.00 dB -11.35 dB 3:22 09-Relativity
DR9 -1.01 dB -11.68 dB 7:18 10-Innocent Blood
––––––––––––––––––––––––––––––––––––––––

Number of tracks: 10
Official DR value: DR9

Samplerate: 44100 Hz
Channels: 2
Bits per sample: 24
Bitrate: 1406 kbps
Codec: FLAC
================================================================================



Thanks to the Original customer!