Subcategories

Yes - The Yes Album (1971/2013) [Official Digital Download 24bit/192kHz]

Posted By: HDV
Yes - The Yes Album (1971/2013) [Official Digital Download 24bit/192kHz]

Yes - The Yes Album (1971/2013)
FLAC (tracks) 24 bit/192 kHz | Time - 41:30 minutes | 1,48 GB
Official Digital Download - Source: | Front cover

The Yes Album is the prog-rock legends’ Platinum classic. This monumental release finds the band discovering their trademark sound. Widely acclaimed, it received rave reviews from Rolling Stone, Pitchfork, Q and many other publications. It reached #4 in the U.K. and the Top Forty in the United States. The Yes Album is included on Q’s list of the “100 Greatest British Albums of All Time”.

The album that first gave shape to the established Yes sound, build around science-fiction concepts, folk melodies, and soaring organ, guitar, and vocal showpieces. "Your Move" actually made the U.S. charts as a single, and "Starship Trooper," "Perpetual Change," and "Yours Is No Disgrace" became much-loved parts of the band's concert repertory for many tours to come.

Tracklist:

01 - Yours Is No Disgrace
02 - Clap
03 - Starship Trooper
04 - I've Seen All Good People
05 - A Venture
06 - Perpetual Change

Analyzed: Yes / The Yes Album
––––––––––––––––––––––––––––––––––––––––

DR Peak RMS Duration Track
––––––––––––––––––––––––––––––––––––––––
DR11 -0.29 dB -13.42 dB 9:40 01-Yours Is No Disgrace
DR15 -1.82 dB -20.12 dB 3:17 02-Clap
DR10 0.00 dB -13.06 dB 9:27 03-Starship Trooper
DR9 -0.11 dB -14.02 dB 6:57 04-I've Seen All Good People
DR10 -0.87 dB -14.83 dB 3:19 05-A Venture
DR10 -0.29 dB -13.96 dB 8:51 06-Perpetual Change
––––––––––––––––––––––––––––––––––––––––

Number of tracks: 6
Official DR value: DR11

Samplerate: 192000 Hz
Channels: 2
Bits per sample: 24
Bitrate: 4865 kbps
Codec: FLAC
================================================================================


Thanks to the Original customer!

Yes - Yesshows (1980/2013) [24bit/192kHz]