Yo-Yo Ma & Bobby McFerrin - Hush (1992) [Reissue 2015] PS3 + Hi-Res FLAC

Posted By: HDAtall
Yo-Yo Ma & Bobby McFerrin - Hush (1992) [Reissue 2015] PS3 + Hi-Res FLAC

Yo-Yo Ma & Bobby McFerrin - Hush (1992) [Reissue 2015].
PS3 Rip | SACD ISO | DSD64 2.0 > 1-bit/2.8224 MHz | 46:33 minutes | Scans included | 1,3 GB
or FLAC(converted with foobar2000 to tracks) 24bit/88,2 kHz | Full Scans included | 808 MB

The idea here was to put two masters together–one classical cellist, one improvisational singer/sound-effects performer–and voilà! instant amazing, unique, hip–and, hopefully, hit–record. The intriguing setup was to see what would happen when each led the other through the unfamiliar territory of his own specialty. The success of this recording lies not so much in the music or even in the overall performances, but in the fascinating and fun opportunity to sit in on the musicians' good-natured, respectful give-and-take, to witness an uncommon form of artistic chemistry that allows each performer to expand his vision and even his technique. On one hand we get Bobby McFerrin's impressionistic, improvisatory jazz/pop; on the other we enjoy Yo-Yo Ma's highly refined, formalized musicianship.

A surprisingly good collaboration from two virtuosos of their given instruments. Bobby McFerrin, the master of the voice, and Yo-yo Ma, the master of the cello, combined to perform various pieces, from classical, traditional, and contemporary classical sectors. Some of the McFerrin compositions are quite amazing simply as compositions to begin with, but when the cello and vocal performances are added, they become something even more exciting. More than likely, the main highlight on the album is Rimsky-Korsakov's "Flight of the Bumblebee," which is performed on a dual line by both musicians and allows an ample chance to note the amazing virtuosity of McFerrin, once you can distinguish the voice from the cello (yes, they follow the lines that close). For any fan of either musician, it's a wonderful find of an album.

Tracklist:

01. Grace
02. Andante from Concerto in D Minor for 2 Mandolins
03. Flight of The Bumblebee From The Legend of Tsar Saltan (Excerpt) (P.76)
04. Stars
05. Hush Little Baby
06. Vocalise
07. Musette from the Notebook for Anna Magdalena Bach (Vocal)
08. Coyote
09. Allegro prestissimo from Sonata for Two Cellos
10. Ave Maria
11. Hoedown!
12. Air From Orchestral Suite No. 3
13. Good-bye

Produced by Steven Epstein & Bobby McFerrin. Recording & Mixing Engineer: Chris Tergesen.
Recorded at Dreamland Recording Studios. Woodstock, New York, August 22-25.1991.
For this recording 20-bit technology was used for "high definition sound".

foobar2000 1.3.9 / Dynamic Range Meter 1.1.1

––––––––––––––––––––––––––––––––––––––––
Analyzed: Yo-Yo Ma / HUSH
––––––––––––––––––––––––––––––––––––––––

DR Peak RMS Duration Track
––––––––––––––––––––––––––––––––––––––––
DR12 -18.27 dB -34.58 dB 3:54 01-Grace
DR11 -19.36 dB -33.92 dB 4:03 02-Andante from Concerto in D Minor for 2 Mandolins
DR13 -13.50 dB -30.41 dB 1:09 03-Flight of The Bumblebee From The Legend of Tsar Saltan (Excerpt) (P.76)
DR11 -9.69 dB -25.92 dB 4:04 04-Stars
DR16 -6.10 dB -26.00 dB 2:36 05-Hush Little Baby
DR11 -13.23 dB -29.48 dB 6:27 06-Vocalise
DR17 -12.08 dB -34.23 dB 4:13 07-Musette from the Notebook for Anna Magdalena Bach (Vocal)
DR12 -10.88 dB -24.98 dB 2:52 08-Coyote
DR12 -10.77 dB -32.26 dB 2:37 09-Allegro prestissimo from Sonata for Two Cellos
DR11 -17.47 dB -34.27 dB 2:38 10-Ave Maria
DR18 -8.73 dB -31.42 dB 5:39 11-Hoedown!
DR11 -15.70 dB -33.31 dB 5:12 12-Air From Orchestral Suite No. 3
DR8 -19.85 dB -34.21 dB 1:11 13-Good-bye
––––––––––––––––––––––––––––––––––––––––

Number of tracks: 13
Official DR value: DR13

Samplerate: 88200 Hz
Channels: 2
Bits per sample: 24
Bitrate: 5645 kbps
Codec: DSD64


Thanks to PS³SACD!
Uncompressed SACD ISO size > 1,86 GB

Yo-Yo Ma on SACDs
>
SACD ISO 1
SACD ISO 2
FLAC
>