Yorkston/Thorne/Khan - Neuk Wight Delhi All-Stars (2017) [Official Digital Download]

Posted By: El Misha
Yorkston/Thorne/Khan - Neuk Wight Delhi All-Stars (2017) [Official Digital Download]

Yorkston/Thorne/Khan - Neuk Wight Delhi All-Stars (2017)
FLAC (tracks) 24-bit/44.10 kHz | Time - 52:02 | 501 MB
Studio Master, Official Digital Download | Artwork: Front cover

Yorkston/Thorne/Khan are an experimental group that includes James Yorkston, one of the most “influential singer/songwriters on the Scottish folk scene”, Suhail Yusuf Khan, award winning sarangi player and classical singer from New Delhi, and Jon Thorne, best known as jazz double bass player with electro outfit Lamb.



Tracklist:

01. Chori, Chori
02. Samant Saarang/Just a Bloke
03. Blades
04. Jaldhar Kedara (Wedding Song)
05. False True Piya
06. The Blue of the Thistle
07. Recruited Collier
08. The Blues You Sang
09. One More Day (Jon's Song)
10. Halleluwah

foobar2000 1.3.9 / Dynamic Range Meter 1.1.1
log date: 2019-09-17 07:17:32

––––––––––––––––––––––––––––––––––––––––
Analyzed: Yorkston/Thorne/Khan / Neuk Wight Delhi All-Stars
––––––––––––––––––––––––––––––––––––––––

DR Peak RMS Duration Track
––––––––––––––––––––––––––––––––––––––––
DR8 -0.10 dB -11.01 dB 5:21 01-Chori, Chori
DR10 -1.16 dB -14.36 dB 2:50 02-Samant Saarang / Just a Bloke
DR11 -1.15 dB -15.36 dB 2:45 03-Bales
DR12 -9.13 dB -27.03 dB 2:10 04-Jaldhar Kedara (Wedding Song)
DR11 -0.25 dB -14.98 dB 6:18 05-False True Piya
DR12 -0.76 dB -16.45 dB 2:36 06-The Blue of the Thistle
DR9 -0.09 dB -13.92 dB 5:03 07-Recruited Collier
DR12 -2.01 dB -16.93 dB 7:12 08-The Blues You Sang
DR11 -0.09 dB -14.32 dB 15:38 09-Halleluwah
DR12 -2.79 dB -17.39 dB 2:09 10-One More Day (Jon's Song)
––––––––––––––––––––––––––––––––––––––––

Number of tracks: 10
Official DR value: DR11

Samplerate: 44100 Hz
Channels: 2
Bits per sample: 24
Bitrate: 1256 kbps
Codec: FLAC
================================================================================



Thanks to the Original customer!