Zoot Sims - Zoot Sims Quartet (2018) [Official Digital Download 24/192]

Posted By: El Misha
Zoot Sims - Zoot Sims Quartet (2018) [Official Digital Download 24/192]

Zoot Sims - Zoot Sims Quartet (2018)
FLAC (tracks) 24-bit/192 kHz | Time - 41:31 | 1.51 GB
Studio Master, Official Digital Download | Artwork: Front cover+digital booklet

Zoot Sims was famous for epitomizing the swinging musician, never playing an inappropriate phrase, always sounding inspired. His enthusiasm and creativity never wavered and throughout his career he never gave up on what many consider his greatest asset: his incredible sense of swing. "No matter what he played, it was perfectly in time," said saxophonist Harry Allen. "If you were making your own perfect saxophone player up in your head, that's where you'd put the notes. And Sims managed to do that without fail."



Tracklist:

01. The New Moon: The New Moon: Softly, as in a morning sunrise
02. In the Middle of a Kiss (Take 4)
03. Rosemary's baby
04. Beach in the A.M. (Minority): Beach in the A.M.
05. Do Nothing till You Hear from Me
06. Alabamy Home: Alabamy Home (Take 9)
07. Murder at the Vanities: Cocktails for Two
08. My Funny Valentine: Babes in Arms: My Funny Valentine


foobar2000 1.3.9 / Dynamic Range Meter 1.1.1
log date: 2019-08-21 10:43:09

––––––––––––––––––––––––––––––––––––––––
Analyzed: Zoot Sims Quartet / Zoot Sims Quartet (Remastered)
––––––––––––––––––––––––––––––––––––––––

DR Peak RMS Duration Track
––––––––––––––––––––––––––––––––––––––––
DR11 -0.97 dB -14.81 dB 4:45 01-The New Moon: The New Moon: Softly, as in a morning sunrise
DR12 -0.33 dB -16.36 dB 5:17 02-In the Middle of a Kiss (Take 4)
DR11 -0.43 dB -13.79 dB 6:37 03-Rosemary's baby
DR12 0.00 dB -14.93 dB 4:15 04-Beach in the A.M. (Minority): Beach in the A.M.
DR12 -1.66 dB -16.16 dB 4:38 05-Do Nothing till You Hear from Me
DR11 -0.20 dB -15.49 dB 5:55 06-Alabamy Home: Alabamy Home (Take 9)
DR13 -0.35 dB -15.29 dB 4:55 07-Murder at the Vanities: Cocktails for Two
DR13 0.00 dB -15.28 dB 5:09 08-My Funny Valentine: Babes in Arms: My Funny Valentine
––––––––––––––––––––––––––––––––––––––––

Number of tracks: 8
Official DR value: DR12

Samplerate: 192000 Hz
Channels: 2
Bits per sample: 24
Bitrate: 5151 kbps
Codec: FLAC
================================================================================



Thanks to the Original customer!