Subcategories

Ofra Haza - Ya Ba Ye (US CD5) (1989) {Sire} **[RE-UP]**

Posted By: TestTickles
Ofra Haza - Ya Ba Ye (US CD5) (1989) {Sire} **[RE-UP]**

Ofra Haza - Ya Ba Ye (US CD5) (1989) {Sire}
EAC Rip | FLAC with CUE and log | scans | 225 mb
MP3 CBR 320kbps | RAR | 79 mb
Genre: world, dance

Ya Ba Ye is the 1989 single by the late singer Ofra Haza. This was the first single from her album Desert Wind. This was a Sire presentation.

Ofra Haza - Ya Ba Ye (US CD5) (1989) {Sire} **[RE-UP]**

1. Ya Ba Ye (Single Mix) (3:35)
2. Ya Ba Ye (7" Remix) (4:14)
3. Da'asa (3:40)
4. Ya Ba Ye (Get Yer Ya Ba's Out Mix) (7:17)
5. Da'ale Da'ale (Razormaid Mix) (5:00)
6. Ya Ba Ye (Long Distance Mix) (7:55)

Tracks 1, 2, 4 & 6 produced by Arif Mardin and Joe Mardin
Track 3 produced by Bezalei Aloni & Ofra Haza
Track 5 produced by Izhar Ashdot

Additional production and remix:
Track 4 by David Frank and Mojo Nicosia
Track 5 by Joseph Watt
Track 6 by Joe Mardin and Nick Sansano

Charlie Brown-guest rap (track 6)

Exact Audio Copy V1.1 from 23. June 2015

EAC extraction logfile from 27. November 2016, 20:29

Ofra Haza / Ya Ba Ye (US CD5)

Used drive : TEAC DVD-ROM DV-28SW Adapter: 1 ID: 0

Read mode : Secure
Utilize accurate stream : Yes
Defeat audio cache : Yes
Make use of C2 pointers : No

Read offset correction : 6
Overread into Lead-In and Lead-Out : No
Fill up missing offset samples with silence : Yes
Delete leading and trailing silent blocks : No
Null samples used in CRC calculations : Yes
Used interface : Native Win32 interface for Win NT & 2000
Gap handling : Appended to previous track

Used output format : Internal WAV Routines
Sample format : 44.100 Hz; 16 Bit; Stereo


TOC of the extracted CD

Track | Start | Length | Start sector | End sector
––––––––––––––––––––––––––––-
1 | 0:00.32 | 3:38.40 | 32 | 16421
2 | 3:38.72 | 4:33.50 | 16422 | 36946
3 | 8:12.47 | 3:39.30 | 36947 | 53401
4 | 11:52.02 | 7:22.05 | 53402 | 86556
5 | 19:14.07 | 7:38.53 | 86557 | 120959
6 | 26:52.60 | 7:52.45 | 120960 | 156404


Track 1

Filename C:\My Documents\My FLAC\Ofra Haza - Ya Ba Ye (US CD5) (1989) [FLAC] {Sire}\01 - Ya Ba Ye (Single Mix).wav

Pre-gap length 0:00:02.32

Peak level 100.0 %
Extraction speed 2.8 X
Track quality 100.0 %
Test CRC F3A8230D
Copy CRC F3A8230D
Accurately ripped (confidence 6) [51C5C8E3] (AR v1)
Copy OK

Track 2

Filename C:\My Documents\My FLAC\Ofra Haza - Ya Ba Ye (US CD5) (1989) [FLAC] {Sire}\02 - Ya Ba Ye (7'' Remix).wav

Pre-gap length 0:00:02.45

Peak level 95.6 %
Extraction speed 3.1 X
Track quality 100.0 %
Test CRC 7F004ADA
Copy CRC 7F004ADA
Accurately ripped (confidence 2) [9A7E2DD9] (AR v2)
Copy OK

Track 3

Filename C:\My Documents\My FLAC\Ofra Haza - Ya Ba Ye (US CD5) (1989) [FLAC] {Sire}\03 - Da'asa.wav

Pre-gap length 0:00:03.05

Peak level 73.9 %
Extraction speed 3.4 X
Track quality 100.0 %
Test CRC 9D60CA12
Copy CRC 9D60CA12
Accurately ripped (confidence 2) [57B48E8B] (AR v2)
Copy OK

Track 4

Filename C:\My Documents\My FLAC\Ofra Haza - Ya Ba Ye (US CD5) (1989) [FLAC] {Sire}\04 - Ya Ba Ye (Get Yer Ya Ba's Out Mix).wav

Pre-gap length 0:00:02.55

Peak level 91.9 %
Extraction speed 3.8 X
Track quality 100.0 %
Test CRC 353E0D85
Copy CRC 353E0D85
Accurately ripped (confidence 6) [C66127D6] (AR v1)
Copy OK

Track 5

Filename C:\My Documents\My FLAC\Ofra Haza - Ya Ba Ye (US CD5) (1989) [FLAC] {Sire}\05 - Da'ale Da'ale (Razormaid Mix).wav

Pre-gap length 0:00:02.62

Peak level 99.1 %
Extraction speed 4.3 X
Track quality 100.0 %
Test CRC 4AE1DB05
Copy CRC 4AE1DB05
Accurately ripped (confidence 2) [689455E0] (AR v2)
Copy OK

Track 6

Filename C:\My Documents\My FLAC\Ofra Haza - Ya Ba Ye (US CD5) (1989) [FLAC] {Sire}\06 - Ya Ba Ye (Long Distance Mix fest. MC Charlie Brown).wav

Pre-gap length 0:00:02.70

Peak level 100.0 %
Extraction speed 4.7 X
Track quality 100.0 %
Test CRC 4601A190
Copy CRC 4601A190
Accurately ripped (confidence 2) [96B212CB] (AR v2)
Copy OK


All tracks accurately ripped

No errors occurred

End of status report

–– CUETools DB Plugin V2.1.6

[CTDB TOCID: frq1nNlni_yaczrYtLgH81h.dcU-] found
Submit result: frq1nNlni_yaczrYtLgH81h.dcU- has been confirmed
Track | CTDB Status
1 | (2/2) Accurately ripped
2 | (2/2) Accurately ripped
3 | (2/2) Accurately ripped
4 | (2/2) Accurately ripped
5 | (2/2) Accurately ripped
6 | (2/2) Accurately ripped


==== Log checksum 88ECB7BC9AD425C2A3CEA912FC2066FB45F5B28063C0E4873454203A19BBBF5E ====


Ofra Haza - Ya Ba Ye (US CD5) (1989) {Sire} **[RE-UP]**